<?xml version="1.0" standalone="no"?>
<!DOCTYPE svg PUBLIC "-//W3C//DTD SVG 1.1//EN" "http://www.w3.org/Graphics/SVG/1.1/DTD/svg11.dtd" >
<svg xmlns="http://www.w3.org/2000/svg">
<metadata>Generated by IcoMoon</metadata>
<defs>
<font id="Aforza-icon-font" horiz-adv-x="1024">
<font-face units-per-em="1024" ascent="960" descent="-64" />
<missing-glyph horiz-adv-x="1024" />
<glyph unicode="&#x20;" horiz-adv-x="512" d="" />
<glyph unicode="&#xe900;" glyph-name="corner_store" d="M859.733 506.88h-124.16l-141.227 176.213c-3.071 3.589-7.605 5.849-12.666 5.849-3.205 0-6.199-0.906-8.738-2.476l0.071 0.041-24.747-14.507c-3.836-2.151-6.386-6.192-6.386-10.828 0-2.841 0.958-5.459 2.568-7.547l-0.021 0.029 117.76-146.773h-301.653l117.76 146.773c1.589 2.060 2.546 4.677 2.546 7.518 0 4.636-2.55 8.677-6.324 10.796l-0.062 0.032-25.173 14.507c-2.412 1.501-5.34 2.392-8.475 2.392-4.981 0-9.437-2.246-12.411-5.78l-0.020-0.025-141.227-176.213h-124.587c-0.272 0.019-0.589 0.029-0.909 0.029-7.336 0-13.361-5.61-14.020-12.774l-0.004-0.055v-26.027c0.663-7.219 6.688-12.829 14.024-12.829 0.32 0 0.637 0.011 0.952 0.032l-0.043-0.002h19.2l93.013-250.027c9.439-21.31 30.403-35.907 54.776-35.907 0.993 0 1.981 0.024 2.963 0.072l-0.138-0.005h357.973c0.706-0.030 1.535-0.047 2.368-0.047 24.604 0 45.759 14.77 55.080 35.928l0.151 0.385 92.587 249.6h19.2c0.4-0.040 0.863-0.063 1.333-0.063 7.348 0 13.381 5.628 14.023 12.809l0.004 0.054v26.027c-0.646 7.235-6.68 12.863-14.027 12.863-0.469 0-0.933-0.023-1.391-0.068l0.058 0.005z" />
<glyph unicode="&#xe901;" glyph-name="discount_store" d="M875.947 802.987c5.782-5.789 9.359-13.784 9.359-22.613s-3.576-16.824-9.359-22.614v0l-90.453-90.453c-5.699-5.321-13.376-8.588-21.815-8.588-17.673 0-32 14.327-32 32 0 8.44 3.267 16.116 8.606 21.834l-0.017-0.019 90.453 90.453c5.789 5.782 13.784 9.359 22.613 9.359s16.824-3.576 22.614-9.359v0zM714.24 832l53.76-55.040-56.32-59.307c-10.357-10.54-16.751-25.003-16.751-40.96s6.394-30.42 16.759-40.968l-0.008 0.008c10.15-10.337 24.273-16.744 39.892-16.744 13.388 0 25.677 4.707 35.302 12.557l-0.101-0.080 5.12 4.693 58.027 59.307 54.187-54.187-50.773-200.96c-4.048-15.272-11.774-28.391-22.188-38.828l0.001 0.001-319.147-314.453c-15.283-14.59-36.033-23.568-58.88-23.568s-43.597 8.979-58.913 23.6l0.033-0.031-233.813 232.96c-14.763 15.319-23.858 36.188-23.858 59.183 0 20.505 7.232 39.32 19.285 54.035l-0.12-0.151 5.12 5.547 317.867 314.453c9.723 9.919 21.968 17.33 35.699 21.197l0.568 0.137zM448.853 337.067c-31.306-0.045-56.668-25.434-56.668-56.747 0-31.34 25.406-56.747 56.747-56.747 30.29 0 55.037 23.732 56.662 53.616l0.006 0.144c0.026 0.636 0.040 1.383 0.040 2.133 0 31.34-25.406 56.747-56.747 56.747-0.014 0-0.028 0-0.042 0h0.002zM320.853 456.107c-8.96-2.987-15.787-17.067-15.787-33.707s6.827-30.72 15.787-33.707h394.667c9.941 6.285 16.447 17.218 16.447 29.671 0 1.422-0.085 2.825-0.25 4.202l0.016-0.166c0.149 1.211 0.234 2.614 0.234 4.036 0 12.452-6.506 23.386-16.303 29.586l-0.143 0.085zM543.573 626.773c-0.891 0.050-1.935 0.079-2.984 0.079-31.34 0-56.747-25.406-56.747-56.747s25.406-56.747 56.747-56.747c31.163 0 56.458 25.119 56.744 56.214v0.027c0 0.004 0 0.009 0 0.014 0 30.89-24.682 56.016-55.4 56.731l-0.067 0.001z" />
<glyph unicode="&#xe902;" glyph-name="supermarket" d="M386.987 339.2h376.32c9.639 0.103 17.706 6.714 20.021 15.641l0.032 0.145 85.333 304.64c0.473 1.76 0.744 3.78 0.744 5.864 0 4.987-1.556 9.611-4.208 13.412l0.050-0.076c-3.675 5.189-9.654 8.535-16.415 8.535-0.079 0-0.158 0-0.237-0.001h-509.855l-14.933 70.4c-1.989 9.533-10.133 16.658-20.011 17.065l-0.042 0.001h-128c-9.367-2.739-16.093-11.251-16.093-21.333s6.726-18.595 15.936-21.294l0.157-0.039h110.933l75.52-353.707c-22.601-10.589-37.975-33.147-37.975-59.295 0-0.154 0.001-0.308 0.002-0.462v0.024c-0.008-0.385-0.013-0.838-0.013-1.293 0-34.901 27.936-63.277 62.667-63.986l0.066-0.001h376.32c10.035 2.070 17.472 10.833 17.472 21.333s-7.437 19.263-17.331 21.309l-0.141 0.024h-376.32c-10.035 2.070-17.472 10.833-17.472 21.333s7.437 19.263 17.331 21.309l0.141 0.024zM336.64 186.88c-0.004-0.254-0.006-0.553-0.006-0.853 0-36.524 29.609-66.133 66.133-66.133s66.133 29.609 66.133 66.133c0 36.523-29.606 66.13-66.128 66.133v0c-0.002 0-0.004 0-0.006 0-36.224 0-65.646-29.124-66.127-65.235v-0.045zM646.827 186.88c-0.008-0.381-0.012-0.83-0.012-1.28 0-36.76 29.8-66.56 66.56-66.56s66.56 29.8 66.56 66.56c0 36.756-29.793 66.553-66.547 66.56h-0.001c-0.128 0.001-0.28 0.001-0.432 0.001-36.225 0-65.647-29.125-66.127-65.236v-0.045z" />
<glyph unicode="&#xe903;" glyph-name="agenda" d="M858.453 794.453c-23.143 23.171-55.12 37.515-90.447 37.547h-554.673c-47.128 0-85.333-38.205-85.333-85.333v0h42.667c23.564 0 42.667-19.103 42.667-42.667s-19.103-42.667-42.667-42.667v0h-42.667v-85.333h42.667c23.564 0 42.667-19.103 42.667-42.667s-19.103-42.667-42.667-42.667v0h-42.667v-85.333h42.667c23.564 0 42.667-19.103 42.667-42.667s-19.103-42.667-42.667-42.667v0h-42.667v-85.333h42.667c23.564 0 42.667-19.103 42.667-42.667s-19.103-42.667-42.667-42.667v0h-42.667c0-47.128 38.205-85.333 85.333-85.333v0h554.667c70.692 0 128 57.308 128 128v0 512c-0.032 35.333-14.375 67.31-37.545 90.452l-0.001 0.001zM810.667 192c0-23.564-19.103-42.667-42.667-42.667v0h-469.333v597.333h469.333c23.564 0 42.667-19.103 42.667-42.667v0zM725.333 618.667v-128c0-23.564-19.103-42.667-42.667-42.667v0h-256c-23.564 0-42.667 19.103-42.667 42.667v0 128c0 23.564 19.103 42.667 42.667 42.667v0h256c23.564 0 42.667-19.103 42.667-42.667v0zM640 362.667v-85.333c0-23.564-19.103-42.667-42.667-42.667v0h-170.667c-23.564 0-42.667 19.103-42.667 42.667v0 85.333c0 23.564 19.103 42.667 42.667 42.667v0h170.667c23.564 0 42.667-19.103 42.667-42.667v0z" />
<glyph unicode="&#xe904;" glyph-name="user_image" d="M462.080 507.733c-46.387 19.92-78.284 65.21-78.284 117.951 0 70.692 57.308 128 128 128s128-57.308 128-128c0-17.94-3.691-35.018-10.354-50.516l0.318 0.832c-19.912-46.404-65.212-78.316-117.964-78.316-17.952 0-35.041 3.696-50.548 10.368l0.832-0.318zM512 142.507c120.357 0.076 227.75 55.512 298.106 142.22l0.561 0.713c-59.359 105.779-170.802 176.086-298.667 176.086s-239.308-70.307-297.781-174.37l-0.886-1.716c70.916-87.421 178.309-142.857 298.653-142.933h0.013z" />
<glyph unicode="&#xe905;" glyph-name="close_small" d="M554.667 445.013c-0.754 0.769-1.22 1.823-1.22 2.987s0.465 2.218 1.22 2.987l164.692 164.692c4.349 4.759 7.014 11.122 7.014 18.107 0 14.845-12.035 26.88-26.88 26.88-6.985 0-13.348-2.664-18.128-7.032l0.021 0.019-166.4-162.987c-0.769-0.754-1.823-1.22-2.987-1.22s-2.218 0.465-2.987 1.22l0.001-0.001-164.693 162.987c-4.759 4.349-11.122 7.014-18.107 7.014-14.845 0-26.88-12.035-26.88-26.88 0-6.985 2.664-13.348 7.032-18.128l-0.019 0.021 162.987-164.693c0.754-0.769 1.22-1.823 1.22-2.987s-0.465-2.218-1.22-2.987l0.001 0.001-162.987-164.693c-4.349-4.759-7.014-11.122-7.014-18.107 0-14.845 12.035-26.88 26.88-26.88 6.985 0 13.348 2.664 18.128 7.032l-0.021-0.019 164.693 162.987c0.769 0.754 1.823 1.22 2.987 1.22s2.218-0.465 2.987-1.22l164.692-164.692c4.759-4.349 11.122-7.014 18.107-7.014 14.845 0 26.88 12.035 26.88 26.88 0 6.985-2.664 13.348-7.032 18.128l0.019-0.021z" />
<glyph unicode="&#xe906;" glyph-name="dashboard" d="M817.067 627.2h-179.627c-0.006 0-0.012 0-0.019 0-42.758 0-77.532 34.182-78.487 76.711l-0.002 0.089v49.493c0 43.358 35.149 78.507 78.507 78.507v0h179.627c0.127 0.001 0.277 0.001 0.427 0.001 43.358 0 78.507-35.149 78.507-78.507 0 0 0-0.001 0-0.001v0-49.493c-0.955-42.618-35.73-76.801-78.488-76.801-0.157 0-0.313 0-0.469 0.001h0.024zM437.333 746.667h-224v-358.827h224v358.827zM445.867 832c42.232-0.242 76.373-34.533 76.373-76.799 0 0 0-0.001 0-0.001v0-374.187c0 0 0-0.001 0-0.001 0-43.208-34.906-78.263-78.057-78.505h-237.676c-43.358 0-78.507 35.149-78.507 78.507v0 372.48c-0.001 0.127-0.001 0.277-0.001 0.428 0 43.122 34.958 78.080 78.080 78.080 0.15 0 0.301 0 0.451-0.001h-0.023zM521.387 142.507v49.493c0.001 0.127 0.001 0.277 0.001 0.427 0 43.122-34.958 78.080-78.080 78.080 0 0-0.001 0-0.001 0h-236.8c-43.358 0-78.507-35.149-78.507-78.507v0-47.787c-0.012-0.508-0.019-1.107-0.019-1.707 0-43.358 35.149-78.507 78.507-78.507 0.007 0 0.013 0 0.020 0h236.799c0 0 0.001 0 0.001 0 43.122 0 78.080 34.958 78.080 78.080 0 0.15 0 0.3-0.001 0.45v-0.023zM810.667 508.16h-166.4v-358.827h166.4v358.827zM819.2 593.493c0.127 0.001 0.277 0.001 0.428 0.001 42.18 0 76.373-34.194 76.373-76.373 0-0.15 0-0.301-0.001-0.451v0.023-374.187c0.003-0.254 0.005-0.553 0.005-0.853 0-42.887-34.767-77.653-77.653-77.653-0.002 0-0.003 0-0.005 0h-180.906c-0.001 0-0.003 0-0.005 0-42.887 0-77.653 34.767-77.653 77.653 0 0.3 0.002 0.6 0.005 0.899v-0.046 372.48c-0.001 0.127-0.001 0.277-0.001 0.428 0 42.973 34.715 77.837 77.632 78.079h0.023z" />
<glyph unicode="&#xe907;" glyph-name="edit" d="M254.72 297.387v-106.667h106.667l314.88 314.88-106.667 106.667-314.88-314.88zM758.187 628.053l-66.56 66.133c-5.11 5.181-12.207 8.39-20.053 8.39s-14.944-3.209-20.050-8.387l-52.056-52.056 106.667-106.667 52.053 52.053c5.103 5.224 8.252 12.378 8.252 20.267s-3.148 15.042-8.257 20.272l0.005-0.006z" />
<glyph unicode="&#xe908;" glyph-name="email" d="M512 789.333c-188.513 0-341.333-152.82-341.333-341.333s152.82-341.333 341.333-341.333v0c0.436-0.002 0.952-0.003 1.468-0.003 71.378 0 137.574 22.186 192.068 60.039l-1.11-0.729c9.793 6.872 16.115 18.112 16.115 30.829 0 14.299-7.993 26.732-19.756 33.072l-0.2 0.098c-4.745 2.52-10.374 3.999-16.348 3.999-7.438 0-14.34-2.293-20.038-6.21l0.12 0.078c-42.048-28.996-94.095-46.314-150.187-46.314-147.276 0-266.667 119.391-266.667 266.667s119.391 266.667 266.667 266.667c147.276 0 266.667-119.391 266.667-266.667 0-0.068 0-0.135 0-0.203v0.011-26.453c-2.611-29.153-26.924-51.831-56.533-51.831s-53.923 22.678-56.518 51.612l-0.016 0.218v26.453c0.022 0.977 0.034 2.128 0.034 3.282 0 64.497-38.264 120.057-93.33 145.217l-0.997 0.408c-18.081 8.090-39.186 12.802-61.392 12.802-42.746 0-81.414-17.461-109.26-45.641l-0.015-0.015c-28.832-29.125-46.646-69.206-46.646-113.447 0-21.694 4.283-42.387 12.050-61.28l-0.391 1.074c23.127-57.969 78.787-98.186 143.839-98.186 44.136 0 83.949 18.513 112.096 48.197l0.065 0.069c23.639-30.264 60.135-49.538 101.132-49.538 14.813 0 29.039 2.516 42.272 7.145l-0.898-0.273c50.011 19.236 84.935 66.716 85.333 122.404v27.782c0 0.001 0 0.003 0 0.004 0 187.913-151.849 340.36-339.534 341.329h-0.093zM512 366.080c-43.75 1.881-78.507 37.806-78.507 81.849 0 45.243 36.677 81.92 81.92 81.92 45.218 0 81.879-36.636 81.92-81.845v-0.004c-0.212-45.318-36.998-81.974-82.346-81.974-1.051 0-2.097 0.020-3.138 0.059l0.15-0.004z" />
<glyph unicode="&#xe909;" glyph-name="favourite_deselected" d="M661.333 155.307c-0.219-0.003-0.479-0.005-0.738-0.005-10.035 0-19.48 2.529-27.732 6.984l0.31-0.153-121.173 64.427-121.173-64c-8.207-4.666-18.030-7.416-28.495-7.416-1.534 0-3.054 0.059-4.557 0.175l0.199-0.012c-11.993 1.006-22.812 5.338-31.729 12.059l0.155-0.112c-8.79 6.334-15.759 14.67-20.318 24.363l-0.162 0.383c-2.883 7.124-4.555 15.386-4.555 24.039 0 3.412 0.26 6.762 0.761 10.034l-0.046-0.366 23.467 136.96-98.133 96c-8.361 8.492-14.274 19.417-16.58 31.618l-0.060 0.382c-1.423 5.119-2.24 10.997-2.24 17.067s0.818 11.948 2.349 17.531l-0.109-0.464c4.045 11.157 10.477 20.61 18.717 28.11l0.056 0.050c8.44 7 18.895 11.86 30.372 13.61l0.348 0.044 136.533 18.347 60.16 123.733c5.306 10.255 12.992 18.626 22.358 24.595l0.255 0.152c2.423 1.669 5.301 2.868 8.408 3.396l0.126 0.018c7.187 2.873 15.518 4.539 24.237 4.539 11.593 0 22.497-2.945 32.007-8.127l-0.351 0.175c9.721-6.002 17.44-14.406 22.456-24.4l0.158-0.347 60.587-123.733 135.253-20.053c23.508-3.775 42.363-20.351 49.372-42.229l0.121-0.438c1.963-5.749 3.096-12.371 3.096-19.259 0-17.403-7.236-33.116-18.863-44.295l-0.020-0.019-97.707-96 23.467-135.68c0.463-2.921 0.727-6.288 0.727-9.718 0-8.637-1.677-16.882-4.724-24.427l0.156 0.438c-8.77-21.227-28.424-36.316-51.818-38.383l-0.235-0.017zM512 281.173c4.375-0.14 8.464-1.228 12.113-3.063l-0.167 0.076 133.12-70.827c0.769-0.198 1.651-0.312 2.56-0.312s1.791 0.114 2.634 0.328l-0.074-0.016c0.764-0.263 1.644-0.415 2.56-0.415s1.796 0.152 2.617 0.432l-0.057-0.017c1.445 1.274 2.601 2.84 3.38 4.609l0.033 0.085c0.309 0.891 0.488 1.918 0.488 2.987s-0.179 2.096-0.508 3.053l0.020-0.066-25.173 148.907c-0.283 1.406-0.446 3.022-0.446 4.675 0 7.055 2.952 13.42 7.689 17.928l0.010 0.010 107.093 105.387c1.509 1.291 2.578 3.056 2.977 5.063l0.009 0.057c0.203 0.962 0.319 2.067 0.319 3.2s-0.116 2.238-0.337 3.305l0.018-0.105c-0.768 1.874-1.932 3.448-3.395 4.678l-0.018 0.015c-1.269 1.216-2.856 2.11-4.623 2.545l-0.070 0.015-148.48 21.76c-8.612 0.989-15.755 6.429-19.139 13.929l-0.061 0.151-66.56 136.533c-0.517 1.745-1.762 3.13-3.375 3.825l-0.039 0.015c-1.916 0.153-4.148 0.24-6.4 0.24s-4.484-0.087-6.693-0.259l0.293 0.018-67.413-139.52c-3.833-7.504-10.996-12.833-19.486-14.063l-0.14-0.017-148.48-21.76c-1.838-0.45-3.424-1.344-4.697-2.563l0.004 0.003c-1.584-1.314-2.772-3.054-3.393-5.044l-0.020-0.076c-0.204-0.898-0.32-1.929-0.32-2.987s0.117-2.089 0.338-3.080l-0.018 0.094c0.409-2.064 1.478-3.829 2.974-5.11l0.012-0.010 107.093-105.387c4.696-4.708 7.6-11.205 7.6-18.38 0-1.495-0.126-2.96-0.368-4.386l0.022 0.153-25.173-148.907c-0.295-0.892-0.466-1.92-0.466-2.987s0.17-2.094 0.485-3.056l-0.020 0.069c0.932-1.881 2.229-3.45 3.809-4.671l0.031-0.023c0.704-0.199 1.512-0.313 2.347-0.313s1.643 0.114 2.41 0.328l-0.063-0.015h5.12l133.547 69.12c3.433 2.041 7.491 3.414 11.829 3.831l0.118 0.009zM413.867 561.493v0z" />
<glyph unicode="&#xe90a;" glyph-name="favourite_selected" d="M808.107 520.533c-6.696 20.637-24.255 35.917-45.762 39.213l-0.318 0.040-137.387 20.053-61.867 124.16c-9.3 19.054-28.531 31.948-50.773 31.948s-41.474-12.894-50.626-31.615l-0.147-0.333-61.867-128-137.387-20.053c-27.662-4.759-48.444-28.568-48.444-57.23 0-16.173 6.616-30.8 17.29-41.323l0.007-0.007 98.987-94.72-23.467-136.533c-0.493-2.872-0.775-6.18-0.775-9.554 0-19.188 9.113-36.248 23.247-47.088l0.141-0.104c9.257-6.829 20.89-10.929 33.481-10.929 9.766 0 18.955 2.467 26.979 6.811l-0.3-0.149 122.88 65.28 123.307-65.28c7.665-4.208 16.795-6.684 26.504-6.684 12.512 0 24.063 4.111 33.377 11.056l-0.148-0.105c14.304 10.605 23.474 27.433 23.474 46.402 0 3.505-0.313 6.936-0.913 10.268l0.052-0.35-23.467 136.96 98.987 97.28c11.024 10.712 17.864 25.679 17.864 42.243 0 6.559-1.072 12.867-3.051 18.759l0.121-0.415z" />
<glyph unicode="&#xe90b;" glyph-name="lastvisit" d="M512 832c-212.077 0-384-171.923-384-384s171.923-384 384-384c212.077 0 384 171.923 384 384v0c0 212.077-171.923 384-384 384v0zM512 149.333c-164.949 0-298.667 133.718-298.667 298.667s133.718 298.667 298.667 298.667c164.949 0 298.667-133.718 298.667-298.667v0c0-164.949-133.718-298.667-298.667-298.667v0zM676.267 328.107l-148.053 135.253v161.28c-1.926 16.239-15.613 28.713-32.213 28.713s-30.287-12.474-32.198-28.56l-0.015-0.153v-176.64c0.1-9.457 4.181-17.941 10.643-23.872l0.024-0.022 158.72-144.64c5.835-5.682 13.815-9.186 22.613-9.186s16.778 3.504 22.62 9.193l-0.007-0.007c5.173 5.664 8.342 13.236 8.342 21.548 0 9.372-4.029 17.804-10.45 23.656l-0.025 0.023z" />
<glyph unicode="&#xe90c;" glyph-name="navigation" d="M879.787 829.013c-3.813 1.826-8.289 2.892-13.013 2.892s-9.2-1.067-13.199-2.972l0.186 0.080-709.547-324.267c-9.724-5.059-16.252-15.058-16.252-26.583 0-4.767 1.117-9.273 3.103-13.271l-0.078 0.174c4.223-8.051 11.739-13.886 20.71-15.752l0.197-0.034 298.667-55.467 54.613-305.493c2.134-12.383 11.875-21.98 24.158-23.873l0.162-0.021h4.267c11.329 0.109 21.116 6.601 25.949 16.047l0.077 0.166 333.227 708.693c1.908 3.824 3.025 8.33 3.025 13.097 0 11.524-6.527 21.524-16.086 26.504l-0.165 0.078z" />
<glyph unicode="&#xe90d;" glyph-name="notification_done" d="M768 672.427c-7.717 7.699-18.369 12.46-30.133 12.46-0.957 0-1.907-0.032-2.848-0.094l0.128 0.007c-13.074-1.15-24.421-7.705-31.923-17.39l-0.077-0.104-244.907-308.053-128 134.827c-7.707 7.636-18.316 12.355-30.027 12.355-13.331 0-25.235-6.114-33.059-15.691l-0.061-0.077c-8.246-9.568-13.268-22.117-13.268-35.84s5.022-26.272 13.328-35.912l-0.060 0.072 160.853-170.667c7.819-8.448 18.966-13.719 31.344-13.719 0.831 0 1.657 0.024 2.476 0.071l-0.113-0.005c13.179 1.242 24.629 7.764 32.355 17.401l0.072 0.092 277.333 348.16c7.231 9.425 11.587 21.385 11.587 34.363 0 0.97-0.024 1.934-0.072 2.892l0.005-0.135c-0.502 13.654-6.104 25.91-14.945 34.999l0.012-0.012zM512 960c-282.77 0-512-229.23-512-512s229.23-512 512-512c282.77 0 512 229.23 512 512v0c0 282.77-229.23 512-512 512v0zM512 21.333c-235.641 0-426.667 191.025-426.667 426.667s191.025 426.667 426.667 426.667c235.641 0 426.667-191.025 426.667-426.667v0c0-235.641-191.025-426.667-426.667-426.667v0z" />
<glyph unicode="&#xe90e;" glyph-name="notification_error" d="M512 960c-282.77 0-512-229.23-512-512s229.23-512 512-512c282.77 0 512 229.23 512 512v0c0 282.77-229.23 512-512 512v0zM512 21.333c-235.641 0-426.667 191.025-426.667 426.667s191.025 426.667 426.667 426.667c235.641 0 426.667-191.025 426.667-426.667v0c0-235.641-191.025-426.667-426.667-426.667v0zM753.067 280.32c6.32-8.42 10.121-19.046 10.121-30.56 0-28.277-22.923-51.2-51.2-51.2-10.977 0-21.147 3.454-29.482 9.335l0.161-0.108-160.853 159.147c-2.328 2.39-5.577 3.873-9.173 3.873s-6.845-1.483-9.171-3.87l-159.15-159.15c-9.348-9.831-22.525-15.947-37.13-15.947-28.277 0-51.2 22.923-51.2 51.2 0 0.356 0.004 0.712 0.011 1.066l-0.001-0.053c0.205 14.112 5.86 26.865 14.948 36.282l-0.015-0.016 159.573 159.147c2.117 2.277 3.416 5.339 3.416 8.705 0 0.090-0.001 0.179-0.003 0.268v-0.013c-0.018 3.444-1.309 6.583-3.426 8.974l0.013-0.014-158.72 159.147c-9.281 9.281-15.022 22.104-15.022 36.267 0 28.326 22.963 51.289 51.289 51.289 14.163 0 26.985-5.741 36.267-15.022l159.147-159.147c2.258-2.368 5.437-3.84 8.96-3.84s6.702 1.472 8.955 3.835l0.005 0.005 161.28 159.147c9.281 9.281 22.104 15.022 36.267 15.022 28.326 0 51.289-22.963 51.289-51.289 0-14.163-5.741-26.985-15.022-36.267l-159.147-159.147c-2.368-2.258-3.84-5.437-3.84-8.96s1.472-6.702 3.835-8.955l0.005-0.005z" />
<glyph unicode="&#xe90f;" glyph-name="notification_info" d="M512 960c-282.77 0-512-229.23-512-512s229.23-512 512-512c282.77 0 512 229.23 512 512v0c0 282.77-229.23 512-512 512v0zM512 21.333c-235.641 0-426.667 191.025-426.667 426.667s191.025 426.667 426.667 426.667c235.641 0 426.667-191.025 426.667-426.667v0c0-235.641-191.025-426.667-426.667-426.667v0zM579.413 234.667c0-36.289-29.418-65.707-65.707-65.707s-65.707 29.418-65.707 65.707v0 266.667c0 36.289 29.418 65.707 65.707 65.707s65.707-29.418 65.707-65.707v0zM512 636.587c-35.537 0.965-63.977 30.003-63.977 65.684 0 36.289 29.418 65.707 65.707 65.707 35.681 0 64.719-28.44 65.682-63.888l0.002-0.089c0.015-0.515 0.023-1.121 0.023-1.729 0-36.289-29.418-65.707-65.707-65.707-0.608 0-1.214 0.008-1.819 0.025l0.089-0.002z" />
<glyph unicode="&#xe910;" glyph-name="notification_warning" d="M512 960c-282.77 0-512-229.23-512-512s229.23-512 512-512c282.77 0 512 229.23 512 512v0c0 282.77-229.23 512-512 512v0zM512 21.333c-235.641 0-426.667 191.025-426.667 426.667s191.025 426.667 426.667 426.667c235.641 0 426.667-191.025 426.667-426.667v0c0-235.641-191.025-426.667-426.667-426.667v0zM682.667 384h-341.333c-35.346 0-64 28.654-64 64s28.654 64 64 64v0h341.333c35.346 0 64-28.654 64-64s-28.654-64-64-64v0z" />
<glyph unicode="&#xe911;" glyph-name="phone" d="M798.72 341.333c-0.326-0.001-0.712-0.002-1.097-0.002-43.229 0-84.817 7.026-123.685 19.999l2.756-0.797c-5.016 1.65-10.79 2.601-16.786 2.601-14.229 0-27.207-5.358-37.026-14.167l0.052 0.046-76.8-57.6c-83.129 41.748-148.972 107.592-189.617 188.303l-1.103 2.417 55.893 74.667c10.904 9.948 17.719 24.217 17.719 40.079 0 5.642-0.862 11.083-2.463 16.198l0.104-0.384c-12.175 36.112-19.202 77.7-19.202 120.929 0 0.386 0.001 0.772 0.002 1.157v-0.060c-0.227 30.225-24.782 54.64-55.039 54.64-0.601 0-1.199-0.010-1.795-0.029l0.087 0.002h-125.44c-30.065-0.24-54.374-24.548-54.613-54.59v-0.023c0.243-346.767 281.287-627.81 628.030-628.053h0.024c30.065 0.24 54.374 24.548 54.613 54.59v125.036c0 0.001 0 0.001 0 0.002 0 30.248-24.4 54.797-54.59 55.038h-0.023z" />
<glyph unicode="&#xe912;" glyph-name="delete" d="M686.507 552.533h-349.013c-6.362 0-11.52-5.158-11.52-11.52v0-325.547c-0.001-0.127-0.002-0.277-0.002-0.427 0-25.685 20.822-46.507 46.507-46.507 0.001 0 0.001 0 0.002 0h279.040c0.001 0 0.001 0 0.002 0 25.685 0 46.507 20.822 46.507 46.507 0 0.15-0.001 0.3-0.002 0.45v-0.023 325.547c0 6.362-5.158 11.52-11.52 11.52v0zM473.173 250.027c-0.232-9.566-7.927-17.261-17.471-17.493h-0.022c-9.661 0-17.493 7.832-17.493 17.493v0 209.493c0 9.661 7.832 17.493 17.493 17.493v0c9.661 0 17.493-7.832 17.493-17.493v0zM589.227 250.027c0-9.661-7.832-17.493-17.493-17.493v0c-9.566 0.232-17.261 7.927-17.493 17.471v209.515c0 9.661 7.832 17.493 17.493 17.493v0c9.661 0 17.493-7.832 17.493-17.493v0zM746.24 634.027h-112.213c-0.005 0-0.011 0-0.016 0-3.063 0-5.547 2.483-5.547 5.547 0 0.15 0.006 0.299 0.018 0.446l-0.001-0.019v29.013c0 32.283-26.17 58.453-58.453 58.453h-116.053c-32.283 0-58.453-26.17-58.453-58.453v0-29.013c0.27-0.63 0.427-1.363 0.427-2.133s-0.157-1.503-0.44-2.17l0.014 0.036c-0.574-0.187-1.234-0.295-1.92-0.295s-1.346 0.108-1.965 0.307l0.045-0.013h-112.213c-0.146 0.003-0.318 0.005-0.49 0.005-12.725 0-23.040-10.315-23.040-23.040 0-0.602 0.023-1.199 0.069-1.79l-0.005 0.078c0-12.96 10.506-23.467 23.467-23.467h465.067c12.96 0 23.467 10.506 23.467 23.467v0c0 0.001 0 0.003 0 0.004 0 12.725-10.315 23.040-23.040 23.040-0.15 0-0.3-0.001-0.449-0.004h0.022zM442.027 640v29.013c0.236 6.412 5.491 11.52 11.939 11.52 0.003 0 0.005 0 0.008 0h116.053c0.002 0 0.005 0 0.008 0 6.448 0 11.703-5.108 11.938-11.499l0.001-0.021v-29.013c0-3.299-2.674-5.973-5.973-5.973v0h-128c-3.299 0-5.973 2.674-5.973 5.973v0z" />
<glyph unicode="&#xe913;" glyph-name="move" d="M308.053 371.2c5.425 5.534 12.979 8.964 21.333 8.964s15.908-3.43 21.329-8.959l0.005-0.005 157.013-160c1.025-1.227 2.555-2.003 4.267-2.003s3.242 0.775 4.259 1.994l0.007 0.009 157.013 160c5.473 5.43 13.011 8.786 21.333 8.786s15.86-3.356 21.335-8.788l-0.002 0.002c5.285-5.57 8.535-13.116 8.535-21.42 0-0.119-0.001-0.239-0.002-0.358v0.018c0.002-0.127 0.003-0.277 0.003-0.428 0-8.413-3.246-16.067-8.554-21.779l0.018 0.020-181.76-186.453c-5.425-5.534-12.979-8.964-21.333-8.964s-15.908 3.43-21.329 8.959l-0.005 0.005-183.467 186.453c-5.506 5.676-8.901 13.428-8.901 21.973s3.394 16.297 8.908 21.981l-0.008-0.008zM491.093 755.2c5.425 5.534 12.979 8.964 21.333 8.964s15.908-3.43 21.329-8.959l0.005-0.005 183.040-186.453c5.457-5.667 8.819-13.385 8.819-21.889 0-2.991-0.416-5.885-1.193-8.627l0.054 0.223c-2.986-10.597-11.163-18.774-21.541-21.707l-0.219-0.053c-2.387-0.719-5.129-1.133-7.968-1.133-8.316 0-15.803 3.551-21.027 9.22l-0.018 0.020-156.587 160c-1.153 1.131-2.735 1.829-4.48 1.829s-3.327-0.698-4.481-1.83l0.001 0.001-157.013-160c-5.425-5.534-12.979-8.964-21.333-8.964s-15.908 3.43-21.329 8.959l-0.005 0.005c-5.794 5.509-9.495 13.174-9.812 21.703l-0.002 0.057c0.053 8.614 3.456 16.424 8.972 22.199l-0.012-0.013z" />
<glyph unicode="&#xe914;" glyph-name="route_stop" d="M512 290.133c-87.187 0-157.867 70.679-157.867 157.867s70.679 157.867 157.867 157.867c87.187 0 157.867-70.679 157.867-157.867v0c0-87.187-70.679-157.867-157.867-157.867v0zM512 546.133c-54.198 0-98.133-43.936-98.133-98.133s43.936-98.133 98.133-98.133c54.198 0 98.133 43.936 98.133 98.133v0c0 54.198-43.936 98.133-98.133 98.133v0zM512 695.467c-16.495 0-29.867 13.372-29.867 29.867v0 170.667c0 16.495 13.372 29.867 29.867 29.867s29.867-13.372 29.867-29.867v0-170.667c0-16.495-13.372-29.867-29.867-29.867v0zM512-29.867c-16.495 0-29.867 13.372-29.867 29.867v0 170.667c0 16.495 13.372 29.867 29.867 29.867s29.867-13.372 29.867-29.867v0-170.667c0-16.495-13.372-29.867-29.867-29.867v0z" />
<glyph unicode="&#xe915;" glyph-name="route" d="M736 480c-88.366 0-160-71.634-160-160v0c0-101.547 142.507-245.333 148.48-251.307 2.985-2.867 7.046-4.633 11.52-4.633s8.535 1.766 11.526 4.638l-0.006-0.005c5.973 5.973 148.48 149.76 148.48 251.307 0 88.366-71.634 160-160 160v0zM736 264.107c-30.869 0-55.893 25.024-55.893 55.893s25.024 55.893 55.893 55.893c30.869 0 55.893-25.024 55.893-55.893v0c0-30.869-25.024-55.893-55.893-55.893v0zM576 544c0-17.673 14.327-32 32-32s32 14.327 32 32v0 181.76c-0.001 0.034-0.001 0.074-0.001 0.113 0 3.071 1.708 5.743 4.225 7.119l0.042 0.021c1.199 0.811 2.676 1.294 4.267 1.294s3.068-0.484 4.294-1.312l-0.027 0.017 140.8-100.267c3.879-2.971 6.365-7.591 6.4-12.794v-75.953c0-17.673 14.327-32 32-32s32 14.327 32 32v0 91.307c-0.034 16.082-7.867 30.327-19.917 39.158l-0.136 0.095-208.213 148.48c-7.684 5.606-17.316 8.969-27.733 8.969s-20.049-3.363-27.868-9.063l0.135 0.094-185.6-132.693c-2.629-2.030-5.972-3.254-9.6-3.254s-6.971 1.224-9.637 3.282l0.037-0.027-170.667 130.987c-8.087 6.485-18.472 10.408-29.773 10.408-7.645 0-14.87-1.795-21.278-4.987l0.277 0.125c-15.823-8.039-26.549-24.062-26.879-42.623l-0.001-0.044v-476.587c0.106-15.626 7.564-29.488 19.084-38.314l0.116-0.086 208.213-156.16c7.85-5.769 17.707-9.233 28.373-9.233s20.523 3.463 28.508 9.327l-0.134-0.094 139.947 99.84c7.487 5.912 12.249 14.989 12.249 25.178 0 17.673-14.327 32-32 32-6.455 0-12.464-1.911-17.492-5.199l0.122 0.075-85.333-61.867c-1.163-0.683-2.561-1.086-4.053-1.086s-2.891 0.403-4.092 1.107l0.038-0.021c-2.588 1.308-4.398 3.827-4.691 6.791l-0.003 0.035v408.747c0.069 5.294 2.732 9.951 6.775 12.766l0.052 0.034 140.8 100.693c1.163 0.683 2.561 1.086 4.053 1.086s2.891-0.403 4.092-1.107l-0.038 0.021c2.766-1.065 4.693-3.701 4.693-6.787 0-0.014 0-0.028 0-0.042v0.002zM352 211.627c0.001-0.034 0.001-0.074 0.001-0.113 0-3.071-1.708-5.743-4.225-7.119l-0.042-0.021c-1.224-0.719-2.696-1.143-4.267-1.143s-3.043 0.425-4.307 1.165l0.040-0.022-140.8 105.813c-3.879 2.971-6.365 7.591-6.4 12.794v412.166c-0.001 0.034-0.001 0.074-0.001 0.113 0 3.071 1.708 5.743 4.225 7.119l0.042 0.021c1.224 0.719 2.696 1.143 4.267 1.143s3.043-0.425 4.307-1.165l-0.040 0.022 140.8-109.653c3.879-2.971 6.365-7.591 6.4-12.794v-0.006z" />
<glyph unicode="&#xe916;" glyph-name="search" d="M890.453 172.8l-148.48 147.2c34.266 50.967 54.693 113.724 54.693 181.251 0 180.973-146.707 327.68-327.68 327.68s-327.68-146.707-327.68-327.68c0-180.973 146.707-327.68 327.68-327.68 68.070 0 131.292 20.756 183.683 56.283l-1.149-0.735 148.48-148.48c11.713-11.266 27.66-18.205 45.227-18.205s33.514 6.939 45.248 18.226l-0.021-0.020c11.975 11.709 19.4 28.027 19.4 46.080s-7.425 34.371-19.388 46.068l-0.012 0.012zM472.32 706.987c112.401 0 203.52-91.119 203.52-203.52s-91.119-203.52-203.52-203.52c-112.401 0-203.52 91.119-203.52 203.52v0c0 112.401 91.119 203.52 203.52 203.52v0z" />
<glyph unicode="&#xe917;" glyph-name="visit" d="M822.187 463.36c-0.028 0-0.062 0-0.095 0-31.624 0-60.109 13.439-80.055 34.918l-0.063 0.069c-19.873-21.568-48.257-35.033-79.787-35.033s-59.914 13.464-79.718 34.957l-0.069 0.075c-19.944-21.588-48.399-35.061-80-35.061s-60.056 13.473-79.933 34.988l-0.067 0.073c-19.944-21.588-48.399-35.061-80-35.061s-60.056 13.473-79.933 34.988l-0.067 0.073c-19.87-21.541-48.237-34.987-79.744-34.987-0.015 0-0.030 0-0.044 0h-11.944v-341.333c0-23.564 19.103-42.667 42.667-42.667v0h14.080c23.564 0 42.667 19.103 42.667 42.667v0 223.147h188.587v-223.147c0-23.564 19.103-42.667 42.667-42.667v0h290.133c23.564 0 42.667 19.103 42.667 42.667v0 341.333h-11.947zM549.547 207.36v137.813h190.293v-137.387zM887.467 612.693l-90.027 160.427c-15.029 25.689-42.483 42.67-73.903 42.67-0.269 0-0.537-0.001-0.805-0.004h-421.506c-0.227 0.002-0.495 0.003-0.764 0.003-31.42 0-58.874-16.981-73.685-42.267l-0.218-0.403-90.027-160.427c-5.668-10.308-9.003-22.59-9.003-35.652 0-36.966 26.71-67.693 61.883-73.935l0.453-0.067h8.96c43.41 0.242 78.507 35.489 78.507 78.932 0 0 0 0.001 0 0.001v0c-0.136-1.731-0.213-3.748-0.213-5.784 0-43.358 35.149-78.507 78.507-78.507s78.507 35.149 78.507 78.507c0 2.035-0.077 4.053-0.23 6.049l0.016-0.265c0-43.122 34.958-78.080 78.080-78.080s78.080 34.958 78.080 78.080v0c-0.136-1.731-0.213-3.748-0.213-5.784 0-43.358 35.149-78.507 78.507-78.507s78.507 35.149 78.507 78.507c0 2.035-0.077 4.053-0.23 6.049l0.016-0.265c-0.001-0.127-0.001-0.277-0.001-0.428 0-43.444 35.098-78.691 78.485-78.932h8.983c35.729 6.219 62.548 36.997 62.548 74.038 0 13.217-3.415 25.637-9.41 36.425l0.195-0.383z" />
<glyph unicode="&#xe918;" glyph-name="arrow_left" horiz-adv-x="647" d="M19.601 439.507c-0.033-26.746 11.455-52.21 31.527-69.885l450.755-396.553c31.066-26.068 77.26-22.567 104.044 7.884s24.359 76.714-5.461 104.199l-394.169 346.757c-2.189 1.919-3.444 4.688-3.444 7.599s1.255 5.68 3.444 7.599l394.169 346.757c20.749 17.41 30.44 44.693 25.323 71.291s-24.238 48.338-49.965 56.808c-25.727 8.47-54.024 2.34-73.94-16.016l-450.594-396.432c-20.121-17.706-31.663-43.204-31.689-70.006z" />
<glyph unicode="&#xe919;" glyph-name="arrow_right" horiz-adv-x="647" d="M627.136 439.507c0.033-26.745-11.455-52.209-31.527-69.885l-450.755-396.553c-31.066-26.068-77.26-22.567-104.044 7.884s-24.359 76.714 5.461 104.199l394.169 346.757c2.189 1.919 3.444 4.688 3.444 7.599s-1.255 5.681-3.444 7.599l-394.169 346.757c-20.749 17.41-30.44 44.693-25.323 71.291s24.238 48.338 49.965 56.808c25.727 8.47 54.024 2.34 73.94-16.016l450.594-396.432c20.121-17.706 31.663-43.204 31.689-70.007z" />
<glyph unicode="&#xe91a;" glyph-name="handle" d="M210.824 597.333v-298.667h-40.157v298.667zM291.137 597.333v-298.667h-40.157v298.667zM371.451 597.333v-298.667h-40.157v298.667zM451.765 597.333v-298.667h-40.157v298.667zM532.078 597.333v-298.667h-40.157v298.667zM612.392 597.333v-298.667h-40.157v298.667zM692.706 597.333v-298.667h-40.157v298.667zM773.020 597.333v-298.667h-40.157v298.667zM853.333 597.333v-298.667h-40.157v298.667z" />
<glyph unicode="&#xe91b;" glyph-name="sentiment_attribute" d="M783.36 719.36c-69.474 69.389-165.405 112.302-271.36 112.302-212.077 0-384-171.923-384-384s171.923-384 384-384c212.077 0 384 171.923 384 384 0 0.119 0 0.238 0 0.357v-0.019c0 0.215 0.001 0.47 0.001 0.725 0 105.788-43.065 201.518-112.62 270.615l-0.021 0.021zM515.84 141.227c-167.305 0-302.933 135.628-302.933 302.933s135.628 302.933 302.933 302.933c167.305 0 302.933-135.628 302.933-302.933v0c0-167.305-135.628-302.933-302.933-302.933v0zM658.347 388.267c-8.317-22.185-19.877-41.293-34.319-57.817l0.186 0.217c-27.195-32.706-67.895-53.375-113.422-53.375-1.225 0-2.447 0.015-3.665 0.045l0.181-0.003c-0.217-0.001-0.473-0.002-0.729-0.002-47.754 0-90.543 21.261-119.416 54.834l-0.174 0.208c-15.060 16.634-27.548 35.962-36.608 57.108l-0.512 1.345-51.2-20.48c11.9-28.566 27.562-53.125 46.721-74.483l-0.214 0.243c39.362-45.823 97.372-74.667 162.119-74.667 0.005 0 0.010 0 0.015 0h-0.001c0.645-0.007 1.407-0.012 2.17-0.012 63.611 0 120.377 29.306 157.533 75.153l0.297 0.379c17.755 21.104 32.208 45.72 42.116 72.538l0.551 1.702zM384 576c23.564 0 42.667-19.103 42.667-42.667s-19.103-42.667-42.667-42.667c-23.564 0-42.667 19.103-42.667 42.667v0c0 23.564 19.103 42.667 42.667 42.667v0zM640 576c23.564 0 42.667-19.103 42.667-42.667s-19.103-42.667-42.667-42.667c-23.564 0-42.667 19.103-42.667 42.667v0c0 23.564 19.103 42.667 42.667 42.667v0z" />
<glyph unicode="&#xe91c;" glyph-name="rating_attribute" d="M216.747 448c-0.003-0.435-0.005-0.949-0.005-1.464 0-22.908 3.432-45.015 9.811-65.833l-0.419 1.59h-75.093c-36.289 0-65.707 29.418-65.707 65.707s29.418 65.707 65.707 65.707v0h75.093c-5.959-19.229-9.391-41.335-9.391-64.243 0-0.515 0.002-1.029 0.005-1.543v0.079zM872.96 513.707c36.289 0 65.707-29.418 65.707-65.707s-29.418-65.707-65.707-65.707v0h-206.507c6.227 19.656 9.815 42.262 9.815 65.707s-3.588 46.050-10.245 67.3l0.43-1.593zM446.293 612.267c0.127 0 0.277 0.001 0.427 0.001 90.722 0 164.267-73.545 164.267-164.267s-73.545-164.267-164.267-164.267c-90.722 0-164.266 73.544-164.267 164.266v0c0 0 0 0 0 0.001 0 90.572 73.302 164.023 163.817 164.266h0.023z" />
<glyph unicode="&#xe91d;" glyph-name="back" d="M853.333 494.080h-551.253c-3.422 0.059-6.349 2.123-7.658 5.066l-0.022 0.054c-0.798 1.274-1.271 2.822-1.271 4.48s0.473 3.206 1.292 4.516l-0.021-0.036 277.333 243.627c8.861 8.549 14.363 20.528 14.363 33.792 0 11.735-4.307 22.465-11.427 30.694l0.050-0.059c-8.461 9.283-20.602 15.086-34.099 15.086-10.858 0-20.838-3.755-28.714-10.038l0.093 0.072-358.827-315.733c-15.488-13.961-25.181-34.092-25.181-56.487 0-0.391 0.003-0.782 0.009-1.172l-0.001 0.059c0-0.006 0-0.013 0-0.020 0-23.030 10.026-43.719 25.951-57.94l0.076-0.066 357.973-315.307c8.086-7.164 18.785-11.538 30.507-11.538 25.459 0 46.098 20.639 46.098 46.098 0 13.738-6.010 26.072-15.543 34.518l-0.048 0.042-274.347 244.053c-0.867 1.181-1.388 2.663-1.388 4.267s0.521 3.086 1.402 4.287l-0.014-0.020c1.295 3.107 4.204 5.301 7.652 5.545l0.028 0.002h546.987c25.449 0 46.080 20.631 46.080 46.080s-20.631 46.080-46.080 46.080v0z" />
<glyph unicode="&#xe91e;" glyph-name="aforza_assistant" d="M849.493 853.333c49.485 0 89.6-40.115 89.6-89.6s-40.115-89.6-89.6-89.6v0c-0.42-0.007-0.915-0.012-1.411-0.012-19.062 0-36.665 6.25-50.87 16.814l0.228-0.162-128-106.667c16.786-22.377 26.88-50.613 26.88-81.207 0-0.101 0-0.201 0-0.302v0.016c-0.125-15.341-2.93-29.989-7.968-43.552l0.288 0.885 105.813-64c9.604 7.194 21.719 11.52 34.844 11.52 0.050 0 0.101 0 0.151 0h-0.008c32.653-0.738 58.842-27.384 58.842-60.146 0-33.225-26.935-60.16-60.16-60.16-32.47 0-58.932 25.724-60.118 57.904l-0.003 0.108c-0.106 1.595-0.167 3.457-0.167 5.333s0.061 3.739 0.18 5.585l-0.013-0.252-102.827 62.72c-18.453-24.188-44.074-42.066-73.67-50.53l-0.996-0.244v-148.48c39.252-9.911 67.84-44.909 67.84-86.584 0-49.249-39.924-89.173-89.173-89.173s-89.173 39.924-89.173 89.173c0 41.675 28.588 76.673 67.224 86.452l0.616 0.132v143.36c-27.378 1.392-52.43 10.282-73.452 24.637l0.492-0.317-203.093-170.667c-3.774-3.44-8.816-5.547-14.35-5.547-0.055 0-0.11 0-0.166 0.001h0.008c4.601-10.429 7.279-22.589 7.279-35.374 0-49.485-40.115-89.6-89.6-89.6s-89.6 40.115-89.6 89.6c0 49.485 40.115 89.6 89.6 89.6 23.791 0 45.416-9.272 61.459-24.4l-0.044 0.041c0.981 2.957 2.435 5.512 4.295 7.714l-0.028-0.034v2.133l198.827 168.107c-18.336 23.272-29.417 53.006-29.44 85.328v0.005c0.369 23.209 6.49 44.91 16.995 63.843l-0.355-0.696-128 77.227c-16.098-17.311-39.002-28.107-64.427-28.107-48.542 0-87.893 39.351-87.893 87.893s39.351 87.893 87.893 87.893c48.542 0 87.893-39.351 87.893-87.893 0-0.019 0-0.038 0-0.056v0.003c0.003-0.271 0.005-0.59 0.005-0.91 0-7.727-1.093-15.199-3.132-22.269l0.14 0.566 135.68-79.787c25.892 25.644 61.53 41.489 100.868 41.489 31.688 0 60.974-10.281 84.706-27.689l-0.401 0.28 128 109.653c-5.613 11.345-8.897 24.703-8.897 38.827 0 49.249 39.924 89.173 89.173 89.173 0.128 0 0.256 0 0.383-0.001h-0.020z" />
<glyph unicode="&#xe91f;" glyph-name="calendar" d="M864.427 768h-101.973c-0.127-0.006-0.277-0.010-0.427-0.010-4.948 0-8.96 4.012-8.96 8.96 0 0.004 0 0.007 0 0.011v-0.001 62.293c0 20.501-16.619 37.12-37.12 37.12s-37.12-16.619-37.12-37.12v0-170.667c-0.238-14.898-12.371-26.883-27.303-26.883-0.151 0-0.302 0.001-0.453 0.004h0.023c-0.128-0.002-0.279-0.003-0.43-0.003-14.932 0-27.065 11.985-27.303 26.861v81.515c-0.236 9.95-8.357 17.925-18.342 17.925-0.152 0-0.303-0.002-0.454-0.006h-231.658c-0.127-0.006-0.277-0.010-0.427-0.010-4.948 0-8.96 4.012-8.96 8.96 0 0.004 0 0.007 0 0.011v-0.001 62.293c0 20.501-16.619 37.12-37.12 37.12s-37.12-16.619-37.12-37.12v0-170.667c-0.238-14.898-12.371-26.883-27.303-26.883-0.151 0-0.302 0.001-0.453 0.004h0.023c-0.128-0.002-0.279-0.003-0.43-0.003-14.932 0-27.065 11.985-27.303 26.861v81.515c-0.17 10.002-8.318 18.045-18.344 18.045-0.753 0-1.495-0.045-2.224-0.133l0.088 0.009h-53.76c-0.387 0.007-0.843 0.012-1.3 0.012-39.699 0-71.992-31.706-72.939-71.177l-0.002-0.088v-604.16c0.948-39.559 33.242-71.265 72.94-71.265 0.457 0 0.913 0.004 1.368 0.013l-0.068-0.001h704.853c0.387-0.007 0.843-0.012 1.3-0.012 39.699 0 71.992 31.706 72.939 71.177l0.002 0.088v604.16c-0.948 39.559-33.242 71.265-72.94 71.265-0.457 0-0.913-0.004-1.368-0.013l0.068 0.001zM846.080 92.587h-668.16c-0.129-0.003-0.28-0.005-0.432-0.005-9.749 0-17.679 7.785-17.915 17.477v426.689c0 0.002 0 0.003 0 0.005 0 9.897 8.023 17.92 17.92 17.92 0.15 0 0.3-0.002 0.449-0.006h668.138c0.127 0.003 0.277 0.005 0.427 0.005 9.897 0 17.92-8.023 17.92-17.92 0-0.002 0-0.004 0-0.005v0-426.667c-0.236-9.714-8.166-17.499-17.915-17.499-0.152 0-0.303 0.002-0.454 0.006h0.022z" />
<glyph unicode="&#xe920;" glyph-name="drag_drop" d="M310.187 746.667h403.627c29.926 0 54.187-24.26 54.187-54.187v0 0c0.001-0.127 0.002-0.277 0.002-0.427 0-29.926-24.26-54.187-54.187-54.187-0.001 0-0.001 0-0.002 0h-403.627c0 0-0.001 0-0.002 0-29.926 0-54.187 24.26-54.187 54.187 0 0.15 0.001 0.3 0.002 0.45v-0.023c0 29.926 24.26 54.187 54.187 54.187v0zM310.187 583.68h403.627c29.926 0 54.187-24.26 54.187-54.187v0 0c0-29.926-24.26-54.187-54.187-54.187v0h-403.627c-29.926 0-54.187 24.26-54.187 54.187v0 0c0 29.926 24.26 54.187 54.187 54.187v0zM310.187 420.693h403.627c29.926 0 54.187-24.26 54.187-54.187v0 0c0-29.926-24.26-54.187-54.187-54.187v0h-403.627c-29.926 0-54.187 24.26-54.187 54.187v0 0c0 29.926 24.26 54.187 54.187 54.187v0zM310.187 258.133h403.627c0 0 0.001 0 0.002 0 29.926 0 54.187-24.26 54.187-54.187 0-0.15-0.001-0.3-0.002-0.45v0.023c0-29.926-24.26-54.187-54.187-54.187v0h-403.627c-29.926 0-54.187 24.26-54.187 54.187v0 0c-0.001 0.127-0.002 0.277-0.002 0.427 0 29.926 24.26 54.187 54.187 54.187 0.001 0 0.001 0 0.002 0v0z" />
<glyph unicode="&#xe921;" glyph-name="nav_visits" d="M853.333 451.84c-43.565 0.393-82.131 21.454-106.417 53.838l-0.25 0.348c-1.648 2.253-4.282 3.7-7.253 3.7s-5.606-1.447-7.236-3.674l-0.018-0.025c-24.346-32.935-63.040-54.057-106.667-54.057s-82.321 21.122-106.413 53.698l-0.254 0.36c-1.621 2.307-4.259 3.805-7.248 3.84h-0.005c-3.122-0.035-5.89-1.522-7.663-3.817l-0.017-0.023c-24.248-33.101-62.975-54.354-106.667-54.354s-82.419 21.253-106.408 53.985l-0.258 0.369c-1.621 2.307-4.259 3.805-7.248 3.84h-0.005c-0.037 0.001-0.082 0.001-0.126 0.001-2.966 0-5.579-1.513-7.108-3.81l-0.020-0.031c-24.282-32.405-62.304-53.37-105.257-54.185l-0.13-0.002h-14.507c-1.071 0.461-2.317 0.729-3.627 0.729s-2.556-0.268-3.688-0.752l0.061 0.023c-1.756-1.758-2.876-4.152-2.986-6.806l-0.001-0.020v-325.12c-0.010-0.381-0.015-0.83-0.015-1.28 0-30.162 24.451-54.613 54.613-54.613 0.005 0 0.011 0 0.016 0h619.946c0.001 0 0.001 0 0.002 0 30.012 0 54.37 24.209 54.612 54.164v325.143c-0.083 2.547-1.216 4.813-2.978 6.393l-0.008 0.007c-1.96 1.594-4.488 2.56-7.241 2.56-0.004 0-0.009 0-0.013 0h0.001zM619.52 339.627c0.448 7.177 6.378 12.828 13.628 12.828 0.309 0 0.616-0.010 0.92-0.030l-0.041 0.002h116.907c0.263 0.018 0.569 0.028 0.878 0.028 7.25 0 13.181-5.651 13.626-12.789l0.002-0.039v-185.6c0-9.897-8.023-17.92-17.92-17.92v0h-107.52c-9.897 0-17.92 8.023-17.92 17.92v0zM273.067 339.627c0.445 6.706 5.994 11.977 12.774 11.977 0.31 0 0.617-0.011 0.921-0.033l-0.041 0.002h191.147c0.263 0.019 0.57 0.030 0.88 0.030 6.78 0 12.328-5.271 12.771-11.938l0.002-0.039v-120.32c-0.445-6.706-5.994-11.977-12.774-11.977-0.31 0-0.617 0.011-0.921 0.033l0.041-0.002h-190.72c-0.263-0.019-0.57-0.030-0.88-0.030-6.78 0-12.328 5.271-12.771 11.938l-0.002 0.039zM853.333 505.6c39.461 2.395 71.799 30.242 80.939 67.23l0.127 0.61c2.537 7.385 4.002 15.895 4.002 24.747s-1.465 17.361-4.166 25.3l0.163-0.553-65.28 197.12c-1.598 6.123-6.533 10.772-12.699 11.931l-0.101 0.016h-688.64c-6.372-0.953-11.413-5.706-12.781-11.844l-0.019-0.102-65.28-197.12c-2.537-7.385-4.002-15.895-4.002-24.747s1.465-17.361 4.166-25.3l-0.163 0.553c9.268-37.598 41.605-65.445 80.818-67.828l0.248-0.012c48.417 5.601 85.654 46.364 85.654 95.823 0 2.766-0.116 5.504-0.345 8.21l0.024-0.353c0 15.081 12.226 27.307 27.307 27.307v0c15.081 0 27.307-12.226 27.307-27.307v0c-0.184-2.239-0.289-4.847-0.289-7.48 0-49.533 37.184-90.381 85.16-96.155l0.462-0.045c48.439 5.819 85.623 46.667 85.623 96.2 0 2.633-0.105 5.241-0.311 7.82l0.022-0.34c0 15.081 12.226 27.307 27.307 27.307s27.307-12.226 27.307-27.307v0c-0.184-2.239-0.289-4.847-0.289-7.48 0-49.533 37.184-90.381 85.16-96.155l0.462-0.045c48.439 5.819 85.623 46.667 85.623 96.2 0 2.633-0.105 5.241-0.311 7.82l0.022-0.34c0 15.081 12.226 27.307 27.307 27.307s27.307-12.226 27.307-27.307v0c-0.204-2.353-0.321-5.091-0.321-7.857 0-49.459 37.237-90.222 85.206-95.781l0.448-0.042z" />
<glyph unicode="&#xe922;" glyph-name="nav_sync" d="M303.36 656.213c53.495 53.431 127.363 86.474 208.948 86.474 32.050 0 62.909-5.099 91.81-14.531l-2.091 0.59c3.839-1.178 8.253-1.856 12.824-1.856 11.459 0 21.922 4.261 29.892 11.286l-0.050-0.043c10.214 7.876 16.73 20.116 16.73 33.878 0 20.269-14.134 37.237-33.083 41.586l-0.287 0.055c-35.757 12.145-76.944 19.156-119.769 19.156-212.077 0-384-171.923-384-384 0-53.097 10.777-103.678 30.262-149.673l-0.947 2.517c0.32-0.906 0.505-1.95 0.505-3.037 0-3.132-1.534-5.905-3.891-7.61l-0.027-0.019-50.347-32.853c-9.753-6.318-16.116-17.146-16.116-29.461 0-2.561 0.275-5.058 0.798-7.463l-0.042 0.231c2.734-14.177 13.625-25.211 27.503-28.12l0.23-0.040 158.293-32.427h6.827c0.362-0.013 0.787-0.020 1.214-0.020 18.231 0 33.319 13.451 35.883 30.971l0.024 0.196 32.427 157.44c0.443 2.113 0.696 4.542 0.696 7.029 0 19.794-16.046 35.84-35.84 35.84-7.237 0-13.972-2.145-19.606-5.833l0.137 0.084-48.213-31.573c-1.129-0.519-2.449-0.821-3.84-0.821s-2.711 0.303-3.899 0.845l0.059-0.024c-2.609 0.919-4.628 2.937-5.527 5.484l-0.019 0.063c-8.99 26.941-14.177 57.96-14.177 90.19 0 81.48 33.149 155.218 86.697 208.463l0.014 0.014zM938.667 668.16c-2.578 14.318-13.27 25.582-27.058 28.962l-0.249 0.052-157.44 35.84c-2.331 0.54-5.008 0.849-7.756 0.849-16.917 0-31.097-11.721-34.861-27.485l-0.049-0.244-35.84-157.013c-0.586-2.396-0.921-5.147-0.921-7.977 0-11.844 5.885-22.313 14.89-28.643l0.111-0.074c5.639-3.79 12.583-6.049 20.053-6.049s14.414 2.259 20.184 6.131l-0.13-0.082 51.627 32.427c1.129 0.519 2.449 0.821 3.84 0.821s2.711-0.303 3.899-0.845l-0.059 0.024c2.609-0.919 4.628-2.937 5.527-5.484l0.019-0.063c9.33-27.377 14.716-58.914 14.716-91.71 0-80.789-32.684-153.943-85.55-206.964l0.007 0.007c-53.712-54.368-128.265-88.040-210.683-88.040-31.409 0-61.676 4.89-90.080 13.951l2.097-0.578c-4.296 1.492-9.248 2.354-14.4 2.354-11.721 0-22.401-4.459-30.436-11.773l0.036 0.033c-8.943-7.861-14.556-19.324-14.556-32.098 0-3.755 0.485-7.397 1.396-10.866l-0.066 0.297c3.86-15.945 15.864-28.374 31.257-32.776l0.316-0.077c33.978-10.815 73.059-17.048 113.596-17.048 111.926 0 212.754 47.516 283.412 123.477l0.218 0.237c63.086 68.212 101.78 159.787 101.78 260.399 0 51.444-10.116 100.525-28.468 145.363l0.928-2.562c-0.324 0.888-0.511 1.914-0.511 2.983 0 3.246 1.727 6.090 4.311 7.661l0.040 0.022 48.213 30.293c10.341 6.308 17.14 17.527 17.14 30.335 0 2.095-0.182 4.148-0.531 6.144l0.031-0.212z" />
<glyph unicode="&#xe923;" glyph-name="nav_menu" d="M512 874.667c-235.641 0-426.667-191.025-426.667-426.667s191.025-426.667 426.667-426.667c235.641 0 426.667 191.025 426.667 426.667v0c0 235.641-191.025 426.667-426.667 426.667v0zM352 341.333h320c19.558 0 35.413-15.855 35.413-35.413v0c0-0.001 0-0.002 0-0.003 0-19.644-15.804-35.597-35.391-35.837h-320.023c-19.61 0.241-35.413 16.194-35.413 35.837 0 0.001 0 0.002 0 0.003v0c0 19.558 15.855 35.413 35.413 35.413v0zM316.587 448c0 19.558 15.855 35.413 35.413 35.413v0h320c19.558 0 35.413-15.855 35.413-35.413s-15.855-35.413-35.413-35.413h-320c-19.558 0-35.413 15.855-35.413 35.413v0zM672 554.667h-320c-19.558 0-35.413 15.855-35.413 35.413v0c0 0.001 0 0.002 0 0.003 0 19.644 15.804 35.597 35.391 35.837h320.023c19.61-0.241 35.413-16.194 35.413-35.837 0-0.001 0-0.002 0-0.003v0c0-19.558-15.855-35.413-35.413-35.413v0z" />
<glyph unicode="&#xe924;" glyph-name="nav_home" d="M179.2 497.92l321.707 266.24c2.957 2.365 6.752 3.795 10.88 3.795s7.923-1.43 10.915-3.822l-0.035 0.027 322.133-266.24c9.105-7.315 20.802-11.741 33.534-11.741 1.713 0 3.408 0.080 5.080 0.237l-0.214-0.016c14.274 1.704 26.586 8.962 34.902 19.516l0.084 0.111c7.174 9.155 11.505 20.837 11.505 33.531 0 16.608-7.413 31.484-19.111 41.501l-0.074 0.062-322.133 265.813c-20.578 17.281-47.356 27.778-76.587 27.778s-56.009-10.498-76.771-27.929l0.184 0.15-321.707-265.813c-11.772-10.079-19.185-24.955-19.185-41.563 0-12.694 4.331-24.376 11.595-33.65l-0.090 0.119c8.311-10.687 20.698-17.864 34.788-19.185l0.199-0.015c1.836-0.233 3.961-0.367 6.117-0.367 12.281 0 23.553 4.324 32.375 11.533l-0.092-0.073zM877.653 92.587v248.747c-0.142 22.152-9.438 42.106-24.29 56.291l-0.030 0.029-298.667 249.173c-11.886 10.107-27.412 16.255-44.373 16.255s-32.488-6.148-44.471-16.336l0.098 0.081-295.253-249.173c-15.362-14.085-25.202-33.978-26.022-56.176l-0.004-0.144v-248.747c-0.003-0.255-0.005-0.557-0.005-0.859 0-38.881 31.519-70.4 70.4-70.4 0.302 0 0.603 0.002 0.904 0.006h191.527c19.374 0.241 34.987 16.003 34.987 35.411 0 0.001 0 0.002 0 0.003v0 195.84c-0.002 0.128-0.003 0.278-0.003 0.429 0 19.173 15.423 34.745 34.54 34.984h69.57c19.374-0.241 34.987-16.003 34.987-35.411 0-0.001 0-0.002 0-0.003v0-195.84c-0.002-0.127-0.003-0.277-0.003-0.427 0-19.323 15.664-34.987 34.987-34.987 0.001 0 0.002 0 0.003 0h191.146c38.798 0.719 69.973 32.34 69.973 71.242 0 0.004 0 0.008 0 0.012v-0.001z" />
<glyph unicode="&#xe925;" glyph-name="filter" d="M934.827 855.040c-5.916 11.69-17.818 19.576-31.566 19.627h-782.514c-19.512-0.060-35.307-15.892-35.307-35.413 0-8.050 2.686-15.473 7.211-21.421l-0.064 0.087 312.747-420.693v-304.64c0.475-39.159 32.094-70.778 71.208-71.253h0.045c16.058 0.095 30.868 5.364 42.866 14.221l-0.2-0.141 70.827 53.333c17.411 13.198 28.551 33.881 28.587 57.167v251.313l312.747 420.693c4.454 5.858 7.135 13.274 7.135 21.317 0 5.759-1.375 11.198-3.814 16.004l0.093-0.202z" />
<glyph unicode="&#xe926;" glyph-name="drop_arrow" d="M887.467 716.373c-11.957 18.346-32.375 30.304-55.586 30.304-0.408 0-0.815-0.004-1.221-0.011l0.061 0.001h-637.44c-0.345 0.006-0.752 0.010-1.16 0.010-23.211 0-43.63-11.958-55.431-30.049l-0.156-0.254c-5.608-8.482-8.947-18.891-8.947-30.080s3.339-21.598 9.074-30.286l-0.128 0.206 318.72-478.293c12.714-17.331 33.004-28.457 55.893-28.457s43.179 11.125 55.758 28.264l0.135 0.193 319.573 478.293c5.875 8.623 9.38 19.269 9.38 30.734 0 10.916-3.178 21.090-8.659 29.647l0.132-0.22z" />
<glyph unicode="&#xe927;" glyph-name="detail_attribute" d="M755.627 149.333h-487.253c-0.511-0.005-1.115-0.008-1.719-0.008-99.4 0-180.121 79.979-181.32 179.095l-0.001 0.113v238.933c1.2 99.229 81.92 179.208 181.321 179.208 0.604 0 1.208-0.003 1.811-0.009l-0.092 0.001h487.253c0.511 0.005 1.115 0.008 1.719 0.008 99.4 0 180.121-79.979 181.32-179.095l0.001-0.113v-238.933c-1.2-99.229-81.92-179.208-181.321-179.208-0.604 0-1.208 0.003-1.811 0.009l0.092-0.001zM268.373 691.627c0 0 0 0-0.001 0-67.243 0-121.783-54.39-122.026-121.577v-244.076c0.242-67.21 54.782-121.6 122.026-121.6 0 0 0 0 0.001 0h487.253c0 0 0 0 0.001 0 67.243 0 121.783 54.39 122.026 121.577v244.076c-0.242 67.21-54.782 121.6-122.026 121.6 0 0 0 0-0.001 0v0zM466.347 615.68h-244.053v-60.16h92.16v-275.2h59.733v275.2h92.16z" />
<glyph unicode="&#xe928;" glyph-name="choice_attribute" d="M669.013 21.333h-583.68v85.333h583.68c1.289-0.034 2.806-0.053 4.328-0.053 95.217 0 172.709 75.888 175.293 170.481l0.005 0.239v341.333c-2.589 94.832-80.082 170.72-175.299 170.72-1.522 0-3.039-0.019-4.552-0.058l0.224 0.005h-583.68v85.333h583.68c1.935 0.051 4.213 0.080 6.498 0.080 142.869 0 259.156-113.809 263.147-255.712l0.008-0.368v-341.333c-4-142.272-120.287-256.080-263.156-256.080-2.285 0-4.563 0.029-6.834 0.087l0.336-0.007zM474.453 308.907l193.707 220.16c6.155 6.486 9.941 15.273 9.941 24.944 0 17.66-12.623 32.373-29.339 35.606l-0.228 0.037c-2.136 0.447-4.59 0.703-7.104 0.703-11.183 0-21.184-5.062-27.836-13.019l-0.047-0.057-170.667-192.853c-0.574-0.187-1.234-0.295-1.92-0.295s-1.346 0.108-1.965 0.307l0.045-0.013c-0.576-0.155-1.238-0.244-1.92-0.244s-1.344 0.089-1.974 0.256l0.054-0.012-168.107 191.573c-6.141 4.932-14.030 7.915-22.615 7.915-20.030 0-36.267-16.237-36.267-36.267 0-6.859 1.904-13.274 5.213-18.744l-0.091 0.162 193.707-220.16c8.301-9.64 20.501-15.725 34.123-15.787h0.011c13.269 0.543 25.044 6.515 33.238 15.739l0.042 0.048z" />
<glyph unicode="&#xe929;" glyph-name="toggle_attribute" d="M634.027 149.333h-244.053c-0.766-0.007-1.672-0.011-2.579-0.011-165.638 0-300.139 133.313-302.059 298.496l-0.002 0.181c1.922 165.364 136.423 298.678 302.061 298.678 0.907 0 1.813-0.004 2.718-0.012l-0.139 0.001h244.053c0.766 0.007 1.672 0.011 2.579 0.011 165.638 0 300.139-133.313 302.059-298.496l0.002-0.181c-1.922-165.364-136.423-298.678-302.061-298.678-0.907 0-1.813 0.004-2.718 0.012l0.139-0.001zM389.973 686.933c-131.959 0-238.933-106.974-238.933-238.933s106.974-238.933 238.933-238.933v0h244.053c131.959 0 238.933 106.974 238.933 238.933s-106.974 238.933-238.933 238.933v0zM634.027 657.067c113.614-2.393 204.8-95.059 204.8-209.023 0-115.464-93.602-209.067-209.067-209.067-115.449 0-209.042 93.578-209.067 209.021v0.002c1.2 115.726 95.293 209.078 211.189 209.078 0.754 0 1.507-0.004 2.259-0.012l-0.115 0.001z" />
<glyph unicode="&#xe92a;" glyph-name="invoice" d="M797.44 789.333h-570.88c-0.649 0.028-1.409 0.044-2.174 0.044-28.956 0-52.565-22.893-53.716-51.566l-0.003-0.104v-599.893c0.224-13.007 8.387-24.052 19.841-28.514l0.212-0.073c3.952-1.586 8.533-2.506 13.329-2.506 8.712 0 16.715 3.036 23.008 8.108l-0.070-0.055 78.507 66.56 81.067-66.987c5.883-4.397 13.299-7.041 21.333-7.041s15.451 2.643 21.427 7.108l-0.094-0.067 82.773 67.413 80.64-66.987c5.883-4.397 13.299-7.041 21.333-7.041s15.451 2.643 21.427 7.108l-0.094-0.067 81.067 66.987 78.507-66.56c6.183-5.053 14.166-8.114 22.863-8.114 4.827 0 9.434 0.943 13.646 2.655l-0.243-0.087c11.667 4.535 19.83 15.58 20.053 28.559v599.494c-1.178 28.759-24.777 51.627-53.718 51.627-0.015 0-0.030 0-0.045 0h0.002zM781.653 721.067v-519.253l-42.667 37.973c-5.814 4.595-13.249 7.37-21.333 7.37s-15.52-2.776-21.406-7.426l0.073 0.055-80.213-66.987-78.933 66.987c-5.814 4.595-13.249 7.37-21.333 7.37s-15.52-2.776-21.406-7.426l0.073 0.055-83.627-66.987-80.213 66.987c-5.814 4.595-13.249 7.37-21.333 7.37s-15.52-2.776-21.406-7.426l0.073 0.055-42.667-37.973v519.253zM670.72 379.733h-318.293c-1.627 0.272-3.502 0.427-5.414 0.427-19.087 0-34.56-15.473-34.56-34.56s15.473-34.56 34.56-34.56c1.911 0 3.786 0.155 5.613 0.454l-0.2-0.027h318.293c1.627-0.272 3.502-0.427 5.414-0.427 19.087 0 34.56 15.473 34.56 34.56s-15.473 34.56-34.56 34.56c-1.911 0-3.786-0.155-5.613-0.454l0.2 0.027zM670.72 516.267h-318.293c-1.627 0.272-3.502 0.427-5.414 0.427-19.087 0-34.56-15.473-34.56-34.56s15.473-34.56 34.56-34.56c1.911 0 3.786 0.155 5.613 0.454l-0.2-0.027h318.293c1.627-0.272 3.502-0.427 5.414-0.427 19.087 0 34.56 15.473 34.56 34.56s-15.473 34.56-34.56 34.56c-1.911 0-3.786-0.155-5.613-0.454l0.2 0.027zM670.72 652.8h-318.293c-0.655 0.042-1.421 0.066-2.192 0.066-19.302 0-35.083-15.080-36.203-34.101l-0.005-0.099c1.125-19.12 16.905-34.2 36.208-34.2 0.771 0 1.537 0.024 2.296 0.072l-0.104-0.005h318.293c0.655-0.042 1.421-0.066 2.192-0.066 19.302 0 35.083 15.080 36.203 34.101l0.005 0.099c-1.356 19.153-17.227 34.177-36.607 34.177-0.631 0-1.258-0.016-1.88-0.047l0.087 0.004z" />
<glyph unicode="&#xe92b;" glyph-name="accounts" d="M654.507 549.547c1.154 0.020 2.514 0.032 3.878 0.032 129.763 0 235.236-104 237.612-233.196l0.003-0.223c-2.376-129.185-107.659-232.999-237.189-232.999-1.513 0-3.023 0.014-4.53 0.042l0.226-0.003c-1.154-0.020-2.514-0.032-3.878-0.032-129.528 0-234.809 103.809-237.186 232.769l-0.003 0.223c2.143 129.368 107.519 233.418 237.196 233.418 1.361 0 2.719-0.011 4.075-0.034l-0.204 0.003zM413.44 506.88c0.119 0 0.26 0 0.4 0 19.472 0 38.51-1.863 56.943-5.422l-1.877 0.302c-56.494-44.642-92.549-112.997-93.013-189.79v-0.077c0.039-56.789 19.991-108.91 53.249-149.768l-0.342 0.434h-14.933c-121.075 2.569-226.363 67.793-285.012 164.456l-0.855 1.517c53.783 105.971 160.918 177.898 285.097 180.474l0.343 0.006zM772.693 297.387h-245.333c-0.449 0.112-0.963 0.177-1.493 0.177s-1.045-0.064-1.537-0.186l0.044 0.009c-0.203-0.506-0.321-1.093-0.321-1.707s0.118-1.201 0.332-1.738l-0.011 0.032 16.213-95.573v-2.987c5.306-9.238 15.117-15.36 26.357-15.36 0.034 0 0.068 0 0.102 0h166.822c0.030 0 0.065 0 0.1 0 11.137 0 20.889 5.926 26.277 14.797l0.077 0.136v3.413l16.213 95.573c0.186 0.508 0.293 1.095 0.293 1.707s-0.107 1.198-0.304 1.742l0.011-0.036c-0.942 1.142-2.284 1.924-3.809 2.13l-0.031 0.003zM594.773 448v-2.56l-42.667-71.253h-23.893c-12.323-3.181-21.28-14.198-21.28-27.307s8.957-24.125 21.085-27.264l0.196-0.043h249.6c12.323 3.181 21.28 14.198 21.28 27.307s-8.957 24.125-21.085 27.264l-0.196 0.043h-26.453l-42.667 70.827v2.56c-2.543 4.418-7.237 7.345-12.616 7.345-2.236 0-4.354-0.506-6.245-1.409l0.087 0.038c-5.609-3.21-9.327-9.159-9.327-15.976 0-1.292 0.134-2.553 0.388-3.77l-0.021 0.119v-2.987l34.133-54.187c0.020-0.319 0.031-0.691 0.031-1.067s-0.011-0.748-0.033-1.118l0.002 0.051h-126.293c-0.125 0.317-0.197 0.683-0.197 1.067s0.072 0.75 0.204 1.087l-0.007-0.020 34.133 54.187v2.56c0.44 1.46 0.693 3.137 0.693 4.873 0 6.462-3.504 12.106-8.716 15.135l-0.084 0.045c-2.099 1.25-4.629 1.989-7.331 1.989-5.455 0-10.207-3.011-12.684-7.462l-0.038-0.074zM405.76 812.8c0.639 0.011 1.394 0.017 2.15 0.017 74.897 0 135.752-60.119 136.942-134.732l0.001-0.112c-1.192-74.725-62.047-134.844-136.944-134.844-0.756 0-1.51 0.006-2.263 0.018l0.113-0.001c-0.512-0.007-1.117-0.011-1.723-0.011-74.895 0-135.749 60.115-136.942 134.725l-0.001 0.112c1.195 74.722 62.049 134.838 136.944 134.838 0.606 0 1.211-0.004 1.815-0.012l-0.092 0.001z" />
<glyph unicode="&#xe92c;" glyph-name="add" d="M85.333 448c0-29.455 23.878-53.333 53.333-53.333v0h311.040c4.948 0 8.96-4.012 8.96-8.96v0-311.040c0-29.455 23.878-53.333 53.333-53.333s53.333 23.878 53.333 53.333v0 311.040c0 4.948 4.012 8.96 8.96 8.96v0h311.040c29.455 0 53.333 23.878 53.333 53.333s-23.878 53.333-53.333 53.333v0h-311.040c-4.948 0-8.96 4.012-8.96 8.96v0 311.040c0 29.455-23.878 53.333-53.333 53.333s-53.333-23.878-53.333-53.333v0-311.040c0-4.948-4.012-8.96-8.96-8.96v0h-311.040c-29.455 0-53.333-23.878-53.333-53.333v0z" />
<glyph unicode="&#xe92d;" glyph-name="more_options" d="M512 277.333c47.128 0 85.333-38.205 85.333-85.333s-38.205-85.333-85.333-85.333c-47.128 0-85.333 38.205-85.333 85.333v0c0 47.128 38.205 85.333 85.333 85.333v0zM512 533.333c47.128 0 85.333-38.205 85.333-85.333s-38.205-85.333-85.333-85.333c-47.128 0-85.333 38.205-85.333 85.333v0c0 47.128 38.205 85.333 85.333 85.333v0zM512 789.333c47.128 0 85.333-38.205 85.333-85.333s-38.205-85.333-85.333-85.333c-47.128 0-85.333 38.205-85.333 85.333v0c0 47.128 38.205 85.333 85.333 85.333v0z" />
<glyph unicode="&#xe92e;" glyph-name="input_plus" d="M527.787 464.64h102.827v-34.56h-102.827v-106.667h-34.987v106.667h-102.4v34.56h102.4v107.093h34.987z" />
<glyph unicode="&#xe92f;" glyph-name="settings" d="M409.6 874.667l-21.333-106.667c-34.133-12.8-68.267-34.133-98.133-55.467l-102.4 34.133-102.4-170.667 85.333-72.533c-4.267-17.067-4.267-38.4-4.267-55.467s0-38.4 4.267-55.467l-85.333-72.533 102.4-170.667 106.667 34.133c29.867-21.333 64-42.667 98.133-55.467l17.067-106.667h200.533l21.333 106.667c34.133 12.8 68.267 29.867 98.133 55.467l106.667-34.133 102.4 170.667-85.333 72.533c4.267 17.067 4.267 38.4 4.267 55.467s0 38.4-4.267 55.467l85.333 72.533-102.4 170.667-106.667-34.133c-29.867 21.333-64 42.667-98.133 55.467l-17.067 106.667h-204.8zM512 610.133c89.6 0 162.133-72.533 162.133-162.133s-72.533-162.133-162.133-162.133-162.133 72.533-162.133 162.133 72.533 162.133 162.133 162.133z" />
<glyph unicode="&#xe930;" glyph-name="targets" d="M731.307 142.080v0 395.093c0.474 17.068 14.423 30.723 31.562 30.723 0.154 0 0.308-0.001 0.461-0.003h63.977c0.255 0.007 0.555 0.012 0.856 0.012 17.056 0 30.91-13.709 31.144-30.71v-395.115zM853.333 162.133h12.373c1.468 0.271 3.158 0.427 4.883 0.427 15.552 0 28.16-12.608 28.16-28.16s-12.608-28.16-28.16-28.16c-1.726 0-3.415 0.155-5.055 0.452l0.172-0.026h-705.707c-1.468-0.271-3.158-0.427-4.883-0.427-15.552 0-28.16 12.608-28.16 28.16s12.608 28.16 28.16 28.16c1.726 0 3.415-0.155 5.055-0.452l-0.172 0.026h4.693v21.333c-0.012 0.337-0.019 0.732-0.019 1.129 0 16.647 12.381 30.402 28.437 32.559l0.169 0.019h67.413c17.779-0.47 32.011-14.994 32.011-32.843 0-0.304-0.004-0.607-0.012-0.909l0.001 0.045v-21.333h54.613v187.733c-0.004 0.194-0.006 0.422-0.006 0.651 0 16.793 12.6 30.644 28.862 32.613l0.157 0.016h66.987c17.779-0.47 32.011-14.994 32.011-32.843 0-0.304-0.004-0.607-0.012-0.909l0.001 0.045v-187.733h73.387v136.96c0.637 15.704 12.97 28.332 28.489 29.434l0.098 0.006h67.413c0.268 0.008 0.583 0.013 0.899 0.013 16.606 0 30.177-12.996 31.097-29.372l0.004-0.081v-136.533h62.72zM804.693 789.333v-162.56c0-15.081-12.226-27.307-27.307-27.307v0c-14.896 0.24-26.88 12.372-26.88 27.303 0 0.001 0 0.002 0 0.004v0 69.973l-181.333-181.333-216.747 54.187-160-159.573c-4.897-4.95-11.69-8.016-19.2-8.016-14.913 0-27.002 12.089-27.002 27.002 0 7.403 2.98 14.111 7.805 18.989l181.758 181.758 218.88-53.76 159.573 159.573h-74.24c-12.873 2.365-22.498 13.498-22.498 26.88s9.626 24.515 22.331 26.854l0.168 0.026z" />
<glyph unicode="&#xe931;" glyph-name="products" d="M220.587 448c4.713 0 8.533-3.821 8.533-8.533v0 0-128c0.152-6.615 3.867-12.329 9.294-15.313l0.093-0.047c2.548-1.595 5.643-2.541 8.96-2.541s6.412 0.946 9.032 2.583l-0.072-0.042h-0.427l51.627 42.667c1.447 1.166 3.308 1.872 5.333 1.872s3.886-0.706 5.35-1.885l-0.016 0.013 51.627-42.667c2.548-1.595 5.643-2.541 8.96-2.541s6.412 0.946 9.032 2.583l-0.072-0.042c5.52 3.031 9.234 8.745 9.386 15.339v128.021c0 4.713 3.821 8.533 8.533 8.533v0h59.307c0.001 0 0.002 0 0.003 0 18.616 0 33.707-15.091 33.707-33.707 0-0.15-0.001-0.3-0.003-0.449v0.023-273.067c0.002-0.127 0.003-0.277 0.003-0.427 0-18.616-15.091-33.707-33.707-33.707-0.001 0-0.002 0-0.003 0h-303.36c-0.001 0-0.002 0-0.003 0-18.616 0-33.707 15.091-33.707 33.707 0 0.15 0.001 0.3 0.003 0.449v-0.023 273.067c-0.002 0.127-0.003 0.277-0.003 0.427 0 18.616 15.091 33.707 33.707 33.707 0.001 0 0.002 0 0.003 0h58.88zM617.813 448c4.713 0 8.533-3.821 8.533-8.533v0 0-128c0.152-6.615 3.867-12.329 9.294-15.313l0.093-0.047c2.548-1.595 5.643-2.541 8.96-2.541s6.412 0.946 9.032 2.583l-0.072-0.042 51.627 42.667c1.447 1.166 3.308 1.872 5.333 1.872s3.886-0.706 5.35-1.885l-0.016 0.013 51.627-42.667c2.548-1.595 5.643-2.541 8.96-2.541s6.412 0.946 9.032 2.583l-0.072-0.042c5.52 3.031 9.234 8.745 9.386 15.339v128.021c0 4.713 3.821 8.533 8.533 8.533h58.88c0.001 0 0.002 0 0.003 0 18.616 0 33.707-15.091 33.707-33.707 0-0.15-0.001-0.3-0.003-0.449v0.023-273.067c0.002-0.127 0.003-0.277 0.003-0.427 0-18.616-15.091-33.707-33.707-33.707-0.001 0-0.002 0-0.003 0h-303.36c-0.001 0-0.002 0-0.003 0-18.616 0-33.707 15.091-33.707 33.707 0 0.15 0.001 0.3 0.003 0.449v-0.023 273.067c-0.002 0.127-0.003 0.277-0.003 0.427 0 18.616 15.091 33.707 33.707 33.707 0.001 0 0.002 0 0.003 0h58.88zM404.48 789.333c0.131 0.008 0.285 0.013 0.439 0.013 4.242 0 7.68-3.438 7.68-7.68 0-0.155-0.005-0.308-0.014-0.46l0.001 0.021v-119.893c0.27-6.452 4.175-11.931 9.709-14.464l0.104-0.043c2.101-0.935 4.552-1.479 7.13-1.479 4.071 0 7.825 1.358 10.834 3.645l-0.044-0.032 51.627 39.253c1.428 1.005 3.204 1.607 5.12 1.607s3.692-0.601 5.148-1.626l-0.028 0.019 52.48-38.4c2.965-2.255 6.719-3.613 10.79-3.613 2.578 0 5.029 0.544 7.244 1.525l-0.114-0.045c5.639 2.25 9.666 7.419 10.235 13.59l0.005 0.064v119.893c0 0.003 0 0.007 0 0.011 0 4.477 3.629 8.107 8.107 8.107 0.15 0 0.299-0.004 0.447-0.012l-0.021 0.001h58.88c0.257 0.007 0.56 0.011 0.864 0.011 17.848 0 32.372-14.233 32.842-31.968l0.001-0.043v-224c-0.47-17.779-14.994-32.011-32.843-32.011-0.304 0-0.607 0.004-0.909 0.012l0.045-0.001h-303.36c-0.134-0.002-0.293-0.003-0.451-0.003-17.931 0-32.55 14.181-33.253 31.939l-0.002 0.064v224c0.706 17.822 15.325 32.003 33.255 32.003 0.159 0 0.317-0.001 0.475-0.003h59.283z" />
<glyph unicode="&#xe932;" glyph-name="notifications" d="M824.32 789.333c16.125-0.474 29.017-13.659 29.017-29.855 0-0.154-0.001-0.308-0.004-0.462v0.023-606.72c0.136-1.062 0.213-2.291 0.213-3.538 0-16.259-13.181-29.44-29.44-29.44s-29.44 13.181-29.44 29.44c0 1.247 0.078 2.476 0.228 3.682l-0.015-0.144v23.040l-218.453 71.253v-2.987c0.022-0.902 0.034-1.964 0.034-3.029 0-72.803-58.071-132.043-130.42-133.927l-0.174-0.004c-72.703 1.663-131.004 60.993-131.004 133.94 0 0.762 0.006 1.522 0.019 2.281l-0.002-0.114v77.227c-0.119 6.617-4.29 12.229-10.132 14.47l-0.108 0.036-37.973 12.373c-6.256 1.874-10.738 7.58-10.738 14.332 0 0.512 0.026 1.019 0.076 1.518l-0.005-0.063v180.48c0 0.007 0 0.016 0 0.025 0 6.648 4.223 12.309 10.133 14.448l0.107 0.034 528.64 177.92v23.467c-0.002 0.128-0.003 0.279-0.003 0.43 0 16.346 13.131 29.625 29.421 29.863h0.022zM391.68 307.2c-1.94 0.917-4.214 1.452-6.613 1.452s-4.673-0.535-6.71-1.493l0.096 0.041c-3.653-2.917-5.973-7.371-5.973-12.366 0-0.003 0-0.005 0-0.008v0-49.92c-0.003-0.259-0.005-0.566-0.005-0.873 0-40.639 32.466-73.695 72.877-74.646l0.088-0.002c20.23 0.148 38.41 8.806 51.158 22.568l0.042 0.046c13.209 13.894 21.334 32.729 21.334 53.462 0 0.105 0 0.21-0.001 0.314v-0.016 11.093c-0.119 6.617-4.29 12.229-10.132 14.47l-0.108 0.036zM202.667 584.533h3.84c15.541-1.729 27.595-14.52 28.158-30.238l0.002-0.055v-213.333c-0.924-16.457-14.495-29.453-31.101-29.453-0.316 0-0.631 0.005-0.945 0.014l0.046-0.001h-3.84c-5.859 0.474-11.134 2.647-15.421 6.020l0.061-0.046-3.413 2.56c-5.771 5.313-9.376 12.901-9.387 21.331v213.335c0.469 16.836 14.229 30.305 31.135 30.305 0.304 0 0.607-0.004 0.909-0.013l-0.044 0.001z" />
<glyph unicode="&#xe933;" glyph-name="share" d="M725.333 376.32c-44.949-0.119-85.487-18.904-114.291-49.008l-0.056-0.058-175.787 87.893c1.183 7.149 2.097 15.816 2.537 24.607l0.023 0.566c-0.489 9.247-1.403 17.763-2.743 26.136l0.183-1.389 175.787 87.893c29.020-29.79 69.525-48.269 114.346-48.269 88.13 0 159.573 71.443 159.573 159.573s-71.443 159.573-159.573 159.573c-88.13 0-159.573-71.443-159.573-159.573 0-0.13 0-0.261 0-0.391v0.020c0.009-8.767 0.941-17.311 2.704-25.547l-0.144 0.801-176.213-87.893c-29.136 30.141-69.929 48.853-115.093 48.853-88.366 0-160-71.634-160-160s71.634-160 160-160c45.164 0 85.957 18.713 115.050 48.808l0.043 0.045 175.787-87.467c-1.607-7.559-2.538-16.251-2.56-25.157v-0.016c0-88.366 71.634-160 160-160s160 71.634 160 160c0 88.366-71.634 160-160 160v0z" />
<glyph unicode="&#xe934;" glyph-name="camera" d="M905.813 678.827h-196.693c-0.194-0.004-0.424-0.007-0.653-0.007-12.79 0-23.851 7.405-29.129 18.162l-0.085 0.191-34.987 70.4c-12.851 25.49-38.819 42.667-68.798 42.667-0.113 0-0.226 0-0.339-0.001h-127.983c-0.096 0-0.209 0.001-0.322 0.001-29.98 0-55.947-17.178-68.597-42.228l-0.201-0.44-33.28-70.4c-5.362-10.948-16.423-18.353-29.213-18.353-0.23 0-0.459 0.002-0.687 0.007l0.034-0.001h-196.693c-18.144 0-32.853-14.709-32.853-32.853v0-527.787c0-18.144 14.709-32.853 32.853-32.853h787.627c18.144 0 32.853 14.709 32.853 32.853v0 527.787c0 18.144-14.709 32.853-32.853 32.853v0zM512 180.053c-0.38-0.003-0.83-0.004-1.28-0.004-111.694 0-202.24 90.546-202.24 202.24s90.546 202.24 202.24 202.24c111.694 0 202.24-90.546 202.24-202.24 0-0.149 0-0.297 0-0.446v0.023c0-0.127 0-0.277 0-0.427 0-111.073-89.921-201.144-200.937-201.386h-0.023zM640 381.867c0-70.692-57.308-128-128-128s-128 57.308-128 128c0 70.692 57.308 128 128 128v0c70.692 0 128-57.308 128-128v0z" />
<glyph unicode="&#xe935;" glyph-name="input_minus" d="M627.627 431.787h-231.253v32.427h231.253z" />
<glyph unicode="&#xe936;" glyph-name="offers_and_promos" d="M512 960c-282.77 0-512-229.23-512-512s229.23-512 512-512c282.77 0 512 229.23 512 512-0.329 282.633-229.367 511.671-512 512zM512 106.667c-188.513 0-341.333 152.82-341.333 341.333s152.82 341.333 341.333 341.333c188.513 0 341.333-152.82 341.333-341.333-0.212-188.425-152.908-341.122-341.333-341.333zM698.283 554.667h-99.797c-4.083 0.020-7.802 2.351-9.6 6.016l-51.755 106.667c-4.843 9.402-14.533 15.31-25.109 15.31s-20.266-5.908-25.109-15.31l-51.712-106.667c-1.783-3.679-5.511-6.016-9.6-6.016h-99.968c-11.033 0.461-21.162-6.068-25.3-16.306s-1.387-21.971 6.868-29.305l87.509-91.477c2.977-3.091 3.802-7.67 2.091-11.605l-48.256-111.317c-4.611-11.048-1.66-23.807 7.334-31.709s22.026-9.187 32.389-3.192l118.528 66.731c3.243 1.833 7.21 1.833 10.453 0l118.485-66.731c10.363-5.994 23.395-4.71 32.389 3.192s11.944 20.661 7.334 31.709l-48.256 111.317c-1.71 3.929-0.904 8.499 2.048 11.605l87.552 91.477c8.27 7.343 11.017 19.1 6.856 29.348s-14.325 16.762-25.374 16.263z" />
<glyph unicode="&#xe937;" glyph-name="new_product_badge" d="M590.080 149.333c-21.966 2.266-41.412 11.596-56.371 25.647l0.051-0.047c-8.96 4.267-17.493 12.8-21.76 12.8s-12.8-8.533-21.76-12.8c-21.333-12.8-42.667-29.867-69.12-21.333s-37.12 38.4-47.787 59.307c-3.898 7.406-6.869 16-8.457 25.071l-0.077 0.529h-26.027c-3.971-0.781-8.537-1.227-13.207-1.227-22.549 0-42.666 10.412-55.806 26.691l-0.107 0.137c-6.162 11.020-9.791 24.179-9.791 38.187s3.629 27.167 9.998 38.59l-0.206-0.403c2.733 6.829 4.319 14.745 4.319 23.031 0 0.903-0.019 1.802-0.056 2.696l0.004-0.128s-12.8 8.533-17.493 12.8c-17.067 17.067-42.667 34.133-42.667 63.573 3.828 27.414 19.825 50.447 42.261 63.777l0.405 0.223c4.693 4.267 17.493 12.8 17.493 17.067s-4.267 16.64-4.267 25.173c-6.162 11.090-9.789 24.321-9.789 38.4s3.627 27.31 9.998 38.811l-0.209-0.411c12.784 18.449 33.846 30.379 57.694 30.379 4.035 0 7.991-0.342 11.84-0.997l-0.413 0.058c8.533 0 21.76 0 26.027 4.267s8.533 12.8 8.533 21.333c5.369 28.113 23.142 51.221 47.284 63.763l0.502 0.237c4.042 0.722 8.696 1.135 13.445 1.135 21.636 0 41.27-8.566 55.698-22.491l-0.024 0.023c8.96-4.267 17.493-12.8 21.76-12.8s12.8 8.533 21.76 12.8c21.333 12.8 42.667 29.867 69.12 21.333s38.827-38.4 47.787-64c3.898-7.406 6.869-16 8.457-25.071l0.077-0.529h26.027c3.959 0.766 8.511 1.205 13.166 1.205 22.469 0 42.552-10.217 55.857-26.258l0.097-0.12c6.162-11.090 9.789-24.321 9.789-38.4s-3.627-27.31-9.998-38.811l0.209 0.411c-2.733-6.703-4.319-14.481-4.319-22.63 0-0.895 0.019-1.785 0.057-2.67l-0.004 0.126s12.8-8.533 17.493-12.8c17.067-17.067 42.667-34.133 42.667-64-3.956-27.246-19.923-50.104-42.26-63.35l-0.407-0.223-17.493-17.067c0-4.267 4.267-17.067 4.267-25.6 6.126-11.028 9.732-24.186 9.732-38.187s-3.606-27.158-9.94-38.596l0.208 0.409c-13.936-16.265-34.499-26.507-57.454-26.507-4.118 0-8.16 0.33-12.099 0.964l0.433-0.057c-8.533 0-21.76 0-26.027-4.267-2.906-8.654-5.793-15.707-9.055-22.547l0.521 1.214c-5.493-27.943-23.236-50.877-47.283-63.336l-0.504-0.237c0-4.267-5.547-4.267-12.8-4.267zM512 251.307c21.946-2.364 41.366-11.674 56.379-25.654l-0.059 0.054c4.267-4.267 12.8-8.533 17.067-12.8 2.054 8.089 5.129 15.196 9.147 21.656l-0.187-0.322c8.533 17.067 12.8 42.667 30.293 55.467 14.123 8.452 31.156 13.45 49.356 13.45 3.957 0 7.86-0.236 11.694-0.696l-0.463 0.045h21.76c-1.714 5.614-3.347 12.665-4.549 19.861l-0.144 1.045c-4.533 11.569-7.16 24.965-7.16 38.975 0 8.877 1.055 17.507 3.046 25.773l-0.152-0.748c9.772 18.596 22.982 34.124 38.916 46.26l0.337 0.246c4.267 4.267 12.8 8.533 17.067 12.8-4.267 4.267-12.8 8.533-17.067 12.8-18.467 10.127-32.412 26.565-39.083 46.35l-0.171 0.584c-1.835 7.465-2.888 16.035-2.888 24.85 0 13.923 2.625 27.232 7.408 39.46l-0.254-0.737c1.767 5.806 3.402 13.007 4.567 20.365l0.126 0.968h-21.76c-3.371-0.414-7.273-0.65-11.231-0.65-18.2 0-35.233 4.998-49.801 13.696l0.445-0.246c-16.086 13.671-27.137 32.84-30.238 54.571l-0.055 0.469c-1.602 5.762-3.093 12.983-4.15 20.344l-0.117 0.989c-6.833-3.233-12.638-7.536-17.458-12.762l-0.035-0.038c-16.059-14.593-37.126-23.931-60.343-25.163l-0.243-0.010c-22.117 1.151-41.838 10.556-56.314 25.167l-0.006 0.006c-4.267 4.267-12.8 8.533-17.067 12.8-2.054-8.089-5.129-15.196-9.147-21.656l0.187 0.322c-3.157-22.2-14.207-41.369-30.168-54.936l-0.125-0.104c-13.521-8.419-29.935-13.41-47.514-13.41-3.704 0-7.357 0.222-10.946 0.652l0.433-0.042h-21.333c1.602-5.762 3.093-12.983 4.15-20.344l0.117-0.989c4.529-11.491 7.154-24.8 7.154-38.723 0-8.816-1.053-17.385-3.039-25.591l0.151 0.74c-6.967-20.19-20.69-36.54-38.411-46.713l-0.416-0.22c-4.693-4.267-13.227-8.533-17.493-12.8 4.267-4.267 12.8-8.533 17.493-12.8 18.306-10.005 32.114-26.307 38.66-45.931l0.166-0.575c1.839-7.518 2.894-16.148 2.894-25.025 0-14.010-2.627-27.406-7.416-39.723l0.256 0.747c-1.617-5.678-3.107-12.751-4.155-19.968l-0.112-0.939h21.333c3.371 0.414 7.273 0.65 11.231 0.65 18.2 0 35.233-4.998 49.801-13.696l-0.445 0.246c13.115-15.642 23.46-34.117 29.972-54.313l0.321-1.154c2.054-8.089 5.129-15.196 9.147-21.656l-0.187 0.322c4.267 4.267 12.8 8.533 17.067 12.8 13.327 14.965 32.327 24.628 53.594 25.594l0.166 0.006z" />
<glyph unicode="&#xe938;" glyph-name="popular_product_badge" d="M416 733.44v0 3.413c1.255 2.020 2.819 3.719 4.645 5.086l0.048 0.034 5.973 4.693h243.2c10.023-0.966 17.797-9.346 17.797-19.541 0-3.475-0.903-6.74-2.488-9.571l0.051 0.099-113.92-230.827h98.56c6.947-0.163 12.901-4.255 15.74-10.133l0.047-0.107v-3.84c0.517-1.675 0.815-3.601 0.815-5.596 0-5.080-1.93-9.708-5.096-13.193l0.014 0.016-314.453-298.667c-1.849-1.651-3.955-3.075-6.237-4.194l-0.163-0.072c-1.976-1.075-4.328-1.707-6.827-1.707s-4.85 0.632-6.903 1.745l0.077-0.038c-5.513 3.728-9.089 9.956-9.089 17.020 0 1.682 0.203 3.316 0.585 4.88l-0.029-0.14 85.333 274.347h-69.547c-10.090 0.895-17.942 9.308-17.942 19.554 0 0.326 0.008 0.649 0.024 0.971l-0.002-0.045v4.267z" />
<glyph unicode="&#xe939;" glyph-name="lowstock_product_badge" d="M546.133 320c0-18.851-15.282-34.133-34.133-34.133s-34.133 15.282-34.133 34.133c0 18.851 15.282 34.133 34.133 34.133v0c18.851 0 34.133-15.282 34.133-34.133v0zM802.133 377.6c-32.891-131.887-150.314-228.056-290.2-228.056-164.949 0-298.667 133.718-298.667 298.667 0 140.757 97.37 258.771 228.428 290.361l2.038 0.415c20.595 5.069 44.24 7.976 68.563 7.976 164.949 0 298.667-133.718 298.667-298.667 0-24.323-2.908-47.967-8.394-70.604l0.418 2.041zM732.16 508.16c-21.269 77.583-81.137 137.451-157.144 158.351l-1.576 0.369c-18.52 5.369-39.794 8.456-61.79 8.456-127.011 0-229.973-102.963-229.973-229.973 0-21.995 3.088-43.269 8.854-63.412l-0.397 1.622c21.269-77.583 81.137-137.451 157.144-158.351l1.576-0.369c18.987-5.653 40.804-8.906 63.38-8.906 127.011 0 229.973 102.963 229.973 229.973 0 22.94-3.359 45.095-9.611 66l0.418-1.628zM512 608c-0.678 0.051-1.468 0.080-2.266 0.080-16.65 0-30.33-12.716-31.858-28.966l-0.010-0.128v-159.573c2.708-16.617 16.958-29.146 34.133-29.146s31.425 12.529 34.106 28.947l0.027 0.2v159.573c-1.538 16.378-15.218 29.094-31.868 29.094-0.797 0-1.588-0.029-2.37-0.086l0.105 0.006z" />
<glyph unicode="&#xe93a;" glyph-name="nostock_product_badge" d="M512 746.667c-164.949 0-298.667-133.718-298.667-298.667s133.718-298.667 298.667-298.667c164.949 0 298.667 133.718 298.667 298.667v0c0 164.949-133.718 298.667-298.667 298.667v0zM307.627 448c0 0.039 0 0.086 0 0.133 0 112.872 91.501 204.373 204.373 204.373 37.364 0 72.387-10.027 102.524-27.537l-0.977 0.524-279.040-279.040c-16.903 29.067-26.88 63.969-26.88 101.201 0 0.121 0 0.243 0 0.364v-0.019zM512 243.627c-0.102 0-0.224 0-0.345 0-37.233 0-72.135 9.977-102.179 27.404l0.978-0.523 279.040 279.040c16.986-29.16 27.013-64.182 27.013-101.547 0-112.872-91.501-204.373-204.373-204.373-0.047 0-0.094 0-0.14 0h0.007z" />
<glyph unicode="&#xe93b;" glyph-name="endorsed_product_badge" d="M491.947 243.627l-104.107-55.040c-5.751-3.081-12.582-4.891-19.835-4.891-16.303 0-30.47 9.143-37.653 22.582l-0.112 0.229c-3.097 5.764-4.917 12.612-4.917 19.885 0 2.623 0.237 5.19 0.69 7.682l-0.039-0.261 20.053 116.053c0.361 2.086 0.568 4.488 0.568 6.939 0 12.002-4.955 22.846-12.931 30.598l-0.010 0.010-85.333 82.347c-7.668 7.712-12.407 18.343-12.407 30.080s4.74 22.368 12.409 30.082l-0.002-0.002c6.527 6.515 14.998 11.083 24.469 12.759l0.278 0.041 116.48 16.64c14.147 2.182 25.837 11.051 31.888 23.219l0.112 0.248 52.053 105.387c7.085 14.321 21.595 23.996 38.365 23.996 6.848 0 13.32-1.614 19.055-4.481l-0.247 0.112c8.584-4.254 15.372-11.043 19.515-19.378l0.112-0.248 52.053-105.387c6.163-12.415 17.853-21.284 31.761-23.436l0.239-0.030 116.48-16.64c20.958-2.934 36.912-20.742 36.912-42.277 0-12.039-4.987-22.914-13.007-30.672l-0.012-0.011-85.333-82.347c-7.986-7.762-12.941-18.606-12.941-30.608 0-2.451 0.207-4.853 0.603-7.19l-0.035 0.252 20.907-115.2c0.412-2.228 0.648-4.791 0.648-7.41 0-21.081-15.288-38.59-35.382-42.047l-0.253-0.036c-2.135-0.379-4.592-0.595-7.101-0.595-7.231 0-14.042 1.799-20.010 4.974l0.231-0.112-104.107 55.040c-5.603 2.894-12.23 4.591-19.252 4.591-7.661 0-14.85-2.019-21.065-5.554l0.211 0.11z" />
<glyph unicode="&#xe93c;" glyph-name="commission_product_badge" d="M512 746.667c-164.949 0-298.667-133.718-298.667-298.667s133.718-298.667 298.667-298.667c164.949 0 298.667 133.718 298.667 298.667v0c0 164.949-133.718 298.667-298.667 298.667v0zM477.44 264.107c0 6.362-5.158 11.52-11.52 11.52v0h-23.040c-19.087 0-34.56 15.473-34.56 34.56s15.473 34.56 34.56 34.56h93.44c0.146-0.003 0.319-0.004 0.491-0.004 13.036 0 23.904 9.279 26.36 21.593l0.029 0.171c0.301 1.534 0.473 3.297 0.473 5.101 0 11.485-6.981 21.339-16.931 25.551l-0.182 0.068-94.72 37.547c-36.118 14.332-61.193 48.972-61.193 89.468 0 46.898 33.629 85.942 78.089 94.332l0.597 0.094c5.178 1.37 8.937 6.003 8.96 11.517v13.23c0 19.087 15.473 34.56 34.56 34.56s34.56-15.473 34.56-34.56v0-11.52c0-6.362 5.158-11.52 11.52-11.52v0h23.040c19.087 0 34.56-15.473 34.56-34.56s-15.473-34.56-34.56-34.56h-94.293c-0.146 0.003-0.319 0.004-0.491 0.004-13.036 0-23.904-9.279-26.36-21.593l-0.029-0.171c-0.301-1.534-0.473-3.297-0.473-5.101 0-11.485 6.981-21.339 16.931-25.551l0.182-0.068 94.72-37.547c36.118-14.332 61.193-48.972 61.193-89.468 0-46.898-33.629-85.942-78.089-94.332l-0.597-0.094c-5.178-1.37-8.937-6.003-8.96-11.517v-14.083c0-19.087-15.473-34.56-34.56-34.56s-34.56 15.473-34.56 34.56v0z" />
<glyph unicode="&#xe93d;" glyph-name="recyclable_product_badge" d="M744.107 669.013c5.973-30.293-23.893-61.44-72.96-88.747-80.822-50.092-135.468-135.78-142.032-234.619l-0.048-0.901s77.227 108.373 145.067 137.387c-66.56-47.787-152.747-181.76-156.587-250.88 0 9.387-10.24 220.587-167.68 338.347 63.782-22.664 113.333-71.517 136.452-133.278l0.508-1.549s-6.4 170.667-134.4 242.347c-45.227 26.88-85.333 26.88-87.467 69.547-74.667-60.16-68.693-205.227 19.627-276.907 48.289-37.791 105.266-67.106 167.227-84.508l3.439-0.825c42.667-53.76 42.667-236.373 42.667-236.373h42.667c-0.522 7.418-0.819 16.074-0.819 24.8 0 33.957 4.503 66.862 12.943 98.151l-0.604-2.631c73.588 19.361 137.804 51.863 193.161 95.168l-1.161-0.875c94.72 74.24 82.347 247.893 0 306.347z" />
<glyph unicode="&#xe93e;" glyph-name="audit_assessment" d="M445.867 72.107h-266.24c-27.099 0-49.067 21.968-49.067 49.067v0 625.493c-0.011 0.382-0.017 0.831-0.017 1.282 0 27.19 21.926 49.259 49.061 49.491h158.315c2.56 40.107 53.333 72.533 116.053 72.533s113.493-32.427 116.053-72.533h151.467c0.009 0 0.019 0 0.030 0 27.099 0 49.067-21.968 49.067-49.067 0-0.6-0.011-1.198-0.032-1.793l0.002 0.086v-243.627c-18.049 4.067-38.778 6.398-60.051 6.398-16.464 0-32.602-1.396-48.302-4.076l1.686 0.238v175.36c0.012 0.266 0.019 0.578 0.019 0.892 0 10.867-8.464 19.758-19.16 20.438l-0.060 0.003h-388.693c-10.946-0.46-19.645-9.446-19.645-20.463 0-0.306 0.007-0.611 0.020-0.913l-0.002 0.043v-512c0.449-10.654 8.973-19.178 19.585-19.625l0.042-0.001h162.133c6.27-29.161 15.838-54.965 28.524-78.86l-0.791 1.633zM599.893 546.133v0c0 23.564-19.103 42.667-42.667 42.667v0h-213.333c-23.564 0-42.667-19.103-42.667-42.667v0 0c0-23.564 19.103-42.667 42.667-42.667v0h213.333c23.564 0 42.667 19.103 42.667 42.667v0zM562.347 472.32h-218.453c-23.564 0-42.667-19.103-42.667-42.667s19.103-42.667 42.667-42.667v0h125.44c24.855 34.639 55.853 63.187 91.63 84.567l1.383 0.766zM445.44 352h-101.547c-23.564 0-42.667-19.103-42.667-42.667s19.103-42.667 42.667-42.667v0h72.107c5.866 32.052 16.098 60.671 30.208 86.895l-0.768-1.561zM893.44 239.36c0-117.821-95.513-213.333-213.333-213.333s-213.333 95.513-213.333 213.333c0 117.821 95.513 213.333 213.333 213.333v0c117.821 0 213.333-95.513 213.333-213.333v0zM786.773 311.040c-0.361 5.534-2.739 10.451-6.398 14.078l-0.002 0.002c-3 2.948-7.117 4.767-11.659 4.767-0.552 0-1.098-0.027-1.636-0.079l0.068 0.005c-5.197-0.448-9.723-3.001-12.772-6.791l-0.028-0.036-98.56-124.16-51.2 54.187c-3.216 3.569-7.854 5.803-13.013 5.803s-9.798-2.234-12.999-5.787l-0.014-0.016c-3.169-3.862-5.090-8.853-5.090-14.293s1.921-10.432 5.122-14.333l-0.032 0.040 64.853-69.12c3.295-3.182 7.788-5.143 12.738-5.143 0.322 0 0.642 0.008 0.96 0.025l-0.045-0.002c5.404 0.141 10.165 2.772 13.195 6.784l0.031 0.043 111.787 140.373c2.71 3.818 4.428 8.512 4.691 13.59l0.003 0.063z" />
<glyph unicode="&#xe93f;" glyph-name="chatter" d="M884.907 256.853l-37.973 111.36c17.778 37.305 28.161 81.073 28.161 127.266 0 0.258 0 0.516-0.001 0.774v-0.040c0 0.011 0 0.024 0 0.037 0 163.299-131.055 295.988-293.725 298.627l-0.248 0.003h-5.12c-0.040 0-0.087 0-0.134 0-161.798 0-293.547-128.658-298.521-289.249l-0.011-0.457c-51.107-41-83.548-103.448-83.548-173.473 0-32.991 7.201-64.301 20.116-92.442l-0.568 1.382-25.6-75.52c-1.752-4.792-2.765-10.324-2.765-16.093 0-13.183 5.291-25.129 13.864-33.833l-0.006 0.006c8.787-8.644 20.827-14.005 34.119-14.080h0.015c5.65 0.015 11.077 0.951 16.144 2.665l-0.358-0.105 75.52 26.027c26.379-12.129 57.233-19.201 89.74-19.201 0.251 0 0.502 0 0.753 0.001h-0.039c0.142 0 0.31-0.001 0.478-0.001 70.825 0 133.899 33.186 174.52 84.856l0.362 0.477c41.869 1.963 80.905 12.14 116.175 28.944l-1.828-0.784 111.36-37.973c5.331-1.86 11.475-2.934 17.871-2.934 15.115 0 28.829 6 38.89 15.748l-0.015-0.014c9.819 9.936 15.885 23.601 15.885 38.682 0 6.95-1.288 13.599-3.639 19.722l0.127-0.377zM579.84 732.587c129.224-2.862 232.939-108.072 233.387-237.61v-0.043c0-0.032 0-0.071 0-0.109 0-40.235-10.108-78.11-27.923-111.223l0.616 1.253c-2.364-4.285-3.755-9.393-3.755-14.827 0-3.55 0.594-6.961 1.688-10.139l-0.066 0.219 37.973-110.507-110.507 37.973c-1.475 0.292-3.171 0.459-4.907 0.459s-3.431-0.167-5.073-0.486l0.167 0.027c-5.287-0.013-10.277-1.272-14.695-3.499l0.188 0.086c-31.504-16.526-68.828-26.223-108.416-26.223-129.436 0-234.66 103.662-237.18 232.494l-0.004 0.235c-0.061 1.986-0.095 4.322-0.095 6.666 0 63.969 25.783 121.917 67.525 164.017l-0.016-0.016c43.031 43.987 102.993 71.26 169.324 71.26 0.622 0 1.243-0.002 1.864-0.007l-0.095 0.001zM275.2 232.533c1.62 3.646 2.563 7.9 2.563 12.373s-0.943 8.727-2.642 12.573l0.079-0.199c-11.539 21.455-18.319 46.948-18.319 74.025 0 35.035 11.352 67.419 30.578 93.675l-0.312-0.446c28.273-109.64 113.748-193.98 221.933-220.164l2.067-0.423c-26.21-19.081-59.046-30.526-94.556-30.526-27.523 0-53.439 6.876-76.126 19.004l0.868-0.424c-3.646 1.62-7.9 2.563-12.373 2.563s-8.727-0.943-12.573-2.642l0.199 0.079-60.587-20.48zM744.533 539.733c0-0.001 0-0.002 0-0.003 0-17.052-13.703-30.903-30.697-31.143h-244.503c-17.017 0.241-30.72 14.092-30.72 31.144 0 0.001 0 0.002 0 0.003v0c0 16.966 13.754 30.72 30.72 30.72v0h242.347c0.127 0.002 0.277 0.003 0.427 0.003 16.966 0 30.72-13.754 30.72-30.72 0-0.001 0-0.002 0-0.003v0zM651.52 434.773c-0.241-17.017-14.092-30.72-31.144-30.72-0.001 0-0.002 0-0.003 0h-151.040c-16.966 0-30.72 13.754-30.72 30.72v0c0 0.001 0 0.002 0 0.003 0 17.052 13.703 30.903 30.697 31.143h149.356c17.202 0 31.147-13.945 31.147-31.147v0z" />
<glyph unicode="&#xe940;" glyph-name="move_stock" d="M402.773 775.68l-146.773-145.067h110.507v-256h72.533v256h109.227zM658.773 263.68v256h-72.533v-256h-110.507l145.493-145.067 146.773 146.773z" />
<glyph unicode="&#xe941;" glyph-name="swap_account" d="M409.173 888.747l145.493-145.493h-109.227v-144.64c-30.551-14.568-55.38-36.93-72.54-64.554l-0.42-0.726v209.92h-109.227zM614.827 7.253l-145.493 145.493h109.227v144.64c30.551 14.568 55.38 36.93 72.54 64.554l0.42 0.726v-209.92h109.227zM508.587 544.853c56.554 0 102.4-45.846 102.4-102.4s-45.846-102.4-102.4-102.4c-56.554 0-102.4 45.846-102.4 102.4v0c0 56.554 45.846 102.4 102.4 102.4v0z" />
<glyph unicode="&#xe942;" glyph-name="whatsapp" d="M760.747 704c-63.643 62.998-151.223 101.92-247.893 101.92s-184.25-38.922-247.923-101.949l0.029 0.029c-63.715-62.468-103.21-149.437-103.21-245.63 0-59.583 15.153-115.627 41.816-164.489l-0.899 1.799-42.667-197.12 198.4 45.653c45.156-22.627 98.389-35.873 154.715-35.873 96.815 0 184.49 39.133 248.070 102.445l-0.012-0.012c63.867 62.688 103.451 149.923 103.451 246.404 0 96.691-39.757 184.096-103.815 246.761l-0.063 0.061zM281.6 308.053l-7.253 11.947c-23.696 39.144-37.907 86.341-38.399 136.822l-0.001 0.138c1.495 152.026 125.083 274.69 277.321 274.69 76.036 0 144.925-30.599 195.024-80.155l-0.025 0.025c50.37-49.399 81.668-118.087 81.92-194.086v-0.047c-0.963-151.728-124.185-274.355-276.048-274.355-0.752 0-1.503 0.003-2.254 0.009l0.115-0.001c-0.034 0-0.074 0-0.114 0-48.261 0-93.642 12.327-133.168 34.004l1.442-0.724-12.373 6.827-111.787-25.173zM674.987 340.907c-13.174-22.32-35.317-38.15-61.344-42.593l-0.522-0.074h-17.067c-29.995 2.237-57.702 9.869-82.882 21.933l1.389-0.599c-57.079 26.069-103.574 66.941-135.778 117.764l-0.755 1.276c-18.867 23.373-31.269 52.679-34.091 84.735l-0.042 0.599c-0.005 0.377-0.008 0.821-0.008 1.267 0 27.069 11.105 51.544 29.007 69.119l0.015 0.014c7.318 8.561 17.87 14.172 29.742 14.927l0.124 0.006h15.36c12.578-0.184 23.174-8.463 26.824-19.851l0.056-0.202c4.267-8.96 11.093-26.027 16.213-39.253l8.107-16.64c1.828-3.401 2.902-7.442 2.902-11.733s-1.074-8.332-2.968-11.868l0.066 0.135v-2.56c-1.952-4.762-4.54-8.856-7.717-12.415l0.037 0.042-12.8-13.653-2.56-2.56c12.537-19.878 26.63-37.091 42.573-52.39l0.094-0.090c15.596-13.906 33.637-25.519 53.32-34.060l1.294-0.5 5.547-2.56h3.84c6.4 7.68 20.053 23.893 24.32 30.72 4.144 6.521 11.329 10.785 19.511 10.785 3.945 0 7.659-0.992 10.905-2.739l-0.123 0.060 52.053-25.173 6.4-2.987c6.111-2.23 11.188-6.069 14.873-11.009l0.060-0.084c1.187-4.78 1.869-10.267 1.869-15.914 0-11.653-2.902-22.629-8.022-32.244l0.18 0.371z" />
<glyph unicode="&#xe943;" glyph-name="close_big" d="M585.387 442.453c-1.359 1.446-2.195 3.399-2.195 5.547s0.835 4.1 2.199 5.551l-0.004-0.004 298.667 296.533c8.681 8.681 14.050 20.673 14.050 33.92 0 26.493-21.477 47.97-47.97 47.97-13.247 0-25.239-5.369-33.92-14.050v0l-296.533-296.107c-1.339-1.582-3.326-2.579-5.547-2.579s-4.207 0.998-5.538 2.569l-0.009 0.011-298.667 296.107c-8.681 8.681-20.673 14.050-33.92 14.050-26.493 0-47.97-21.477-47.97-47.97 0-13.247 5.369-25.239 14.050-33.92v0l296.107-298.667c1.582-1.339 2.579-3.326 2.579-5.547s-0.998-4.207-2.569-5.538l-0.011-0.009-296.107-294.4c-8.681-8.681-14.050-20.673-14.050-33.92 0-26.493 21.477-47.97 47.97-47.97 13.247 0 25.239 5.369 33.92 14.050l298.667 298.667c1.446 1.359 3.399 2.195 5.547 2.195s4.1-0.835 5.551-2.199l-0.004 0.004 296.533-298.667c8.681-8.681 20.673-14.050 33.92-14.050 26.493 0 47.97 21.477 47.97 47.97 0 13.247-5.369 25.239-14.050 33.92v0z" />
<glyph unicode="&#xe944;" glyph-name="promo-symbol" horiz-adv-x="967" d="M648.533 521.956h-85.333c-5.689 0-5.689 0-11.378 5.689l-45.511 96.711c-5.689 5.689-11.378 11.378-22.756 11.378s-17.067-5.689-22.756-11.378l-45.511-96.711c0-5.689-5.689-5.689-11.378-5.689h-85.333c-11.378 0-17.067-5.689-22.756-17.067s0-17.067 5.689-28.444l79.644-79.644c0 0 5.689-5.689 0-11.378l-45.511-96.711c-5.689-11.378 0-22.756 5.689-28.444s17.067-5.689 28.444 0l108.089 56.889c5.689 0 5.689 0 11.378 0l108.089-56.889c11.378-5.689 22.756-5.689 28.444 0s11.378 17.067 5.689 28.444l-45.511 102.4c0 5.689 0 5.689 0 11.378l79.644 79.644c5.689 5.689 11.378 17.067 5.689 28.444-5.689 5.689-11.378 11.378-22.756 11.378zM483.556 903.111c-250.311 0-455.111-204.8-455.111-455.111s204.8-455.111 455.111-455.111 455.111 204.8 455.111 455.111c0 250.311-204.8 455.111-455.111 455.111zM483.556 83.911c-199.111 0-364.089 164.978-364.089 364.089s164.978 364.089 364.089 364.089 364.089-164.978 364.089-364.089c0-199.111-164.978-364.089-364.089-364.089z" />
<glyph unicode="&#xe945;" glyph-name="promo-badge" horiz-adv-x="1067" d="M465.067-35.609c-38.4-17.067-89.6-4.267-115.2 29.867-29.867 38.4-72.533 64-119.467 68.267-42.667 4.267-76.8 38.4-81.067 81.067-4.267 46.933-29.867 89.6-68.267 119.467-34.133 25.6-46.933 72.533-29.867 115.2 21.333 42.667 21.333 93.867 0 136.533s-8.533 89.6 29.867 115.2c38.4 29.867 64 72.533 68.267 119.467 4.267 42.667 38.4 76.8 81.067 81.067 46.933 4.267 89.6 29.867 119.467 68.267 25.6 34.133 72.533 46.933 115.2 29.867 42.667-21.333 93.867-21.333 136.533 0 38.4 17.067 89.6 4.267 115.2-29.867 29.867-38.4 72.533-64 119.467-68.267 42.667-4.267 76.8-38.4 81.067-81.067 4.267-46.933 29.867-89.6 68.267-119.467 34.133-25.6 46.933-72.533 29.867-115.2-21.333-42.667-21.333-93.867 0-136.533 17.067-38.4 4.267-89.6-29.867-115.2-38.4-29.867-64-72.533-68.267-119.467-4.267-42.667-38.4-76.8-81.067-81.067-46.933-4.267-89.6-29.867-119.467-68.267-25.6-34.133-72.533-46.933-115.2-29.867s-93.867 17.067-136.533 0z" />
<glyph unicode="&#xe946;" glyph-name="collapse" d="M465.262 366.495c-0.056 0.575-0.164 1.131-0.245 1.696-0.098 0.685-0.178 1.373-0.313 2.055-0.129 0.651-0.307 1.282-0.469 1.92-0.147 0.587-0.276 1.178-0.453 1.76-0.189 0.627-0.425 1.233-0.645 1.845-0.209 0.58-0.4 1.165-0.636 1.738s-0.516 1.12-0.778 1.678c-0.278 0.589-0.54 1.184-0.849 1.762-0.287 0.535-0.613 1.044-0.924 1.564-0.338 0.565-0.658 1.138-1.027 1.691-0.384 0.575-0.813 1.115-1.225 1.667-0.345 0.46-0.665 0.933-1.033 1.382-0.805 0.98-1.653 1.924-2.549 2.82-0.007 0.007-0.013 0.015-0.020 0.022s-0.015 0.011-0.020 0.018c-0.898 0.896-1.84 1.745-2.822 2.551-0.449 0.369-0.922 0.689-1.384 1.035-0.551 0.413-1.091 0.84-1.665 1.224-0.553 0.369-1.125 0.689-1.693 1.027-0.52 0.311-1.027 0.636-1.562 0.924-0.578 0.309-1.171 0.571-1.762 0.849-0.558 0.264-1.107 0.542-1.678 0.78-0.573 0.236-1.158 0.429-1.74 0.636-0.613 0.22-1.216 0.455-1.842 0.644-0.582 0.176-1.175 0.305-1.762 0.453-0.638 0.162-1.269 0.34-1.918 0.469-0.682 0.135-1.369 0.216-2.055 0.315-0.565 0.080-1.122 0.189-1.696 0.245-1.275 0.124-2.551 0.191-3.829 0.191h-271.516c-21.422 0-38.787-17.365-38.787-38.787s17.365-38.787 38.787-38.787h177.873l-282.875-282.876c-15.147-15.147-15.147-39.707 0-54.855s39.707-15.147 54.855 0l282.875 282.875v-177.873c0-21.422 17.365-38.787 38.787-38.787s38.789 17.365 38.789 38.787v271.513c0 1.28-0.067 2.558-0.193 3.831zM906.86 892.927l-282.875-282.875v177.873c0 21.422-17.365 38.787-38.787 38.787-21.424 0-38.789-17.365-38.789-38.787v-271.515c0-1.278 0.067-2.555 0.193-3.827 0.056-0.573 0.164-1.129 0.245-1.696 0.098-0.685 0.178-1.375 0.315-2.055 0.129-0.651 0.307-1.28 0.469-1.918 0.147-0.589 0.276-1.18 0.453-1.762 0.189-0.625 0.424-1.231 0.644-1.842 0.209-0.582 0.4-1.167 0.636-1.74s0.516-1.12 0.78-1.678c0.278-0.589 0.54-1.184 0.849-1.762 0.287-0.535 0.613-1.042 0.924-1.562 0.338-0.565 0.658-1.14 1.027-1.693 0.384-0.575 0.811-1.113 1.224-1.665 0.345-0.462 0.665-0.935 1.035-1.384 0.805-0.982 1.655-1.925 2.551-2.822 0.007-0.007 0.011-0.015 0.018-0.020 0.007-0.007 0.015-0.013 0.022-0.020 0.896-0.895 1.84-1.744 2.82-2.549 0.449-0.369 0.922-0.689 1.382-1.033 0.553-0.413 1.093-0.842 1.667-1.225 0.551-0.369 1.124-0.689 1.691-1.027 0.52-0.311 1.027-0.636 1.564-0.924 0.578-0.309 1.173-0.571 1.762-0.849 0.558-0.264 1.107-0.542 1.678-0.778 0.573-0.236 1.156-0.427 1.738-0.636 0.613-0.22 1.218-0.455 1.845-0.645 0.582-0.176 1.173-0.305 1.76-0.453 0.638-0.162 1.269-0.34 1.92-0.469 0.682-0.135 1.369-0.215 2.055-0.313 0.565-0.080 1.124-0.189 1.696-0.245 1.273-0.125 2.549-0.193 3.825-0.193 0 0 0.002 0 0.002 0h271.515c21.422 0 38.787 17.365 38.787 38.787s-17.365 38.787-38.787 38.787h-177.873l282.876 282.876c15.147 15.147 15.147 39.707 0 54.855s-39.707 15.144-54.856-0.004z" />
<glyph unicode="&#xe947;" glyph-name="expand" horiz-adv-x="1097" d="M1060.359 921.544c-0.062 0.632-0.18 1.244-0.27 1.866-0.108 0.754-0.196 1.51-0.344 2.26-0.142 0.716-0.338 1.41-0.516 2.112-0.162 0.646-0.304 1.296-0.498 1.936-0.208 0.69-0.468 1.356-0.71 2.030-0.23 0.638-0.44 1.282-0.7 1.912s-0.568 1.232-0.856 1.846c-0.306 0.648-0.594 1.302-0.934 1.938-0.316 0.588-0.674 1.148-1.016 1.72-0.372 0.622-0.724 1.252-1.13 1.86-0.422 0.632-0.894 1.226-1.348 1.834-0.38 0.506-0.732 1.026-1.136 1.52-0.886 1.078-1.818 2.116-2.804 3.102-0.008 0.008-0.014 0.016-0.022 0.024s-0.016 0.012-0.022 0.020c-0.988 0.986-2.024 1.92-3.104 2.806-0.494 0.406-1.014 0.758-1.522 1.138-0.606 0.454-1.2 0.924-1.832 1.346-0.608 0.406-1.238 0.758-1.862 1.13-0.572 0.342-1.13 0.7-1.718 1.016-0.636 0.34-1.288 0.628-1.938 0.934-0.614 0.29-1.218 0.596-1.846 0.858-0.63 0.26-1.274 0.472-1.914 0.7-0.674 0.242-1.338 0.5-2.026 0.708-0.64 0.194-1.292 0.336-1.938 0.498-0.702 0.178-1.396 0.374-2.11 0.516-0.75 0.148-1.506 0.238-2.26 0.346-0.622 0.088-1.234 0.208-1.866 0.27-1.402 0.136-2.806 0.21-4.212 0.21h-298.668c-23.564 0-42.666-19.102-42.666-42.666s19.102-42.666 42.666-42.666h195.66l-311.162-311.164c-16.662-16.662-16.662-43.678 0-60.34s43.678-16.662 60.34 0l311.162 311.162v-195.66c0-23.564 19.102-42.666 42.666-42.666s42.668 19.102 42.668 42.666v298.664c0 1.408-0.074 2.814-0.212 4.214zM433.067 392.836l-311.162-311.162v195.66c0 23.564-19.102 42.666-42.666 42.666-23.566 0-42.668-19.102-42.668-42.666v-298.666c0-1.406 0.074-2.81 0.212-4.21 0.062-0.63 0.18-1.242 0.27-1.866 0.108-0.754 0.196-1.512 0.346-2.26 0.142-0.716 0.338-1.408 0.516-2.11 0.162-0.648 0.304-1.298 0.498-1.938 0.208-0.688 0.466-1.354 0.708-2.026 0.23-0.64 0.44-1.284 0.7-1.914s0.568-1.232 0.858-1.846c0.306-0.648 0.594-1.302 0.934-1.938 0.316-0.588 0.674-1.146 1.016-1.718 0.372-0.622 0.724-1.254 1.13-1.862 0.422-0.632 0.892-1.224 1.346-1.832 0.38-0.508 0.732-1.028 1.138-1.522 0.886-1.080 1.82-2.118 2.806-3.104 0.008-0.008 0.012-0.016 0.020-0.022 0.008-0.008 0.016-0.014 0.024-0.022 0.986-0.984 2.024-1.918 3.102-2.804 0.494-0.406 1.014-0.758 1.52-1.136 0.608-0.454 1.202-0.926 1.834-1.348 0.606-0.406 1.236-0.758 1.86-1.13 0.572-0.342 1.13-0.7 1.72-1.016 0.636-0.34 1.29-0.628 1.938-0.934 0.614-0.29 1.218-0.596 1.846-0.856 0.63-0.26 1.272-0.47 1.912-0.7 0.674-0.242 1.34-0.5 2.030-0.71 0.64-0.194 1.29-0.336 1.936-0.498 0.702-0.178 1.396-0.374 2.112-0.516 0.75-0.148 1.506-0.236 2.26-0.344 0.622-0.088 1.236-0.208 1.866-0.27 1.4-0.138 2.804-0.212 4.208-0.212 0 0 0.002 0 0.002 0h298.666c23.564 0 42.666 19.102 42.666 42.666s-19.102 42.666-42.666 42.666h-195.66l311.164 311.164c16.662 16.662 16.662 43.678 0 60.34s-43.678 16.658-60.342-0.004z" />
<glyph unicode="&#xe948;" glyph-name="minus_big" d="M85.333 448c0-29.867 25.6-51.2 51.2-51.2h746.667c29.867 0 51.2 25.6 51.2 51.2s-25.6 51.2-51.2 51.2h-746.667c-25.6 0-51.2-21.333-51.2-51.2z" />
<glyph unicode="&#xe949;" glyph-name="price_book" horiz-adv-x="843" d="M650.541 929.882c42.165 0 78.306-36.141 78.306-78.306v0-60.235c0-12.047 6.024-18.071 18.071-18.071 36.141-6.024 66.259-42.165 66.259-78.306v0-644.518c0-42.165-36.141-78.306-78.306-78.306v0h-584.282c-66.259 0-120.471 54.212-120.471 120.471v0 722.824c0 66.259 54.212 120.471 120.471 120.471v0h499.953zM421.647 664.847c-30.118 0-48.188-24.094-48.188-48.188v-18.071c0-6.024 0-6.024-6.024-12.047-54.212-18.071-84.329-66.259-90.353-120.471 0-48.188 30.118-96.376 72.282-120.471l90.353-42.165c12.047-6.024 24.094-24.094 18.071-36.141s-12.047-30.118-30.118-30.118h-96.376c-30.118 0-48.188-24.094-48.188-48.188 0-30.118 24.094-48.188 48.188-48.188h30.118c6.024 0 12.047-6.024 12.047-12.047v-12.047c0-30.118 24.094-48.188 48.188-48.188 30.118 0 48.188 24.094 48.188 48.188v18.071c0 6.024 0 6.024 6.024 12.047 48.188 18.071 84.329 66.259 84.329 120.471s-24.094 102.4-72.282 126.494l-90.353 42.165c-12.047 6.024-18.071 24.094-18.071 36.141 6.024 18.071 18.071 24.094 30.118 24.094h96.376c30.118 0 48.188 24.094 48.188 48.188 6.024 30.118-18.071 54.212-42.165 54.212h-30.118c-6.024 0-12.047 6.024-12.047 12.047v6.024c0 30.118-24.094 48.188-48.188 48.188zM644.518 851.576h-493.929c-24.094 0-42.165-18.071-42.165-42.165s18.071-42.165 42.165-42.165v0h493.929c6.024 0 12.047 6.024 12.047 12.047v0 60.235c-6.024 6.024-6.024 12.047-12.047 12.047v0z" />
<glyph unicode="&#xe94a;" glyph-name="pricing_tick" d="M512 960c-281.6 0-512-230.4-512-512s230.4-512 512-512 512 230.4 512 512-230.4 512-512 512zM460.8 243.2l-153.6 162.133 93.867 93.867 68.267-68.267 213.333 221.867 85.333-93.867-307.2-315.733z" />
<glyph unicode="&#xe94b;" glyph-name="promo_placeholder" d="M93.867 699.733c0-4.267 0-4.267 0-8.533s4.267-4.267 8.533-4.267h371.2c4.267 0 8.533 4.267 8.533 8.533l-4.267 170.667c4.267 4.267 0 8.533-8.533 8.533h-234.667c-38.4 0-72.533-21.333-85.333-55.467l-42.667-93.867c-8.533-8.533-12.8-17.067-12.8-25.6v0zM550.4 686.933h371.2c4.267 0 4.267 0 8.533 4.267 0 4.267 4.267 4.267 0 8.533-4.267 8.533-4.267 17.067-8.533 25.6 0 0 0 0 0 4.267l-51.2 89.6c-17.067 34.133-51.2 55.467-85.333 55.467h-234.667c-4.267 0-4.267 0-8.533-4.267 0 0-4.267-4.267-4.267-4.267l4.267-170.667c0-4.267 4.267-8.533 8.533-8.533zM930.133 635.733c4.267 0 8.533-4.267 8.533-8.533v0-533.333c0-38.4-29.867-68.267-72.533-72.533h-704c-42.667 0-72.533 29.867-76.8 68.267v537.6c0 4.267 4.267 8.533 8.533 8.533v0h836.267zM520.533 507.733c-8.533 4.267-21.333 0-25.6-8.533v0l-38.4-72.533c-4.267-4.267-8.533-8.533-12.8-8.533h-4.267l-85.333-8.533c-4.267 0-8.533-4.267-12.8-4.267-8.533-8.533-8.533-17.067 0-25.6v0l59.733-55.467c4.267-4.267 8.533-8.533 4.267-17.067v-4.267l-17.067-76.8c0-4.267 0-8.533 4.267-12.8 4.267-8.533 17.067-12.8 25.6-8.533h4.267l76.8 38.4c4.267 4.267 12.8 4.267 17.067 0h4.267l76.8-38.4c4.267 0 8.533-4.267 12.8 0 8.533 0 17.067 8.533 17.067 21.333v4.267l-17.067 76.8c0 4.267 0 12.8 4.267 17.067v0l59.733 55.467c4.267 4.267 4.267 8.533 4.267 12.8 0 8.533-4.267 17.067-17.067 21.333h-4.267l-85.333 8.533c-4.267 0-12.8 4.267-12.8 8.533v0l-38.4 72.533c8.533 0 4.267 4.267 0 4.267z" />
<glyph unicode="&#xe94c;" glyph-name="product_placeholder" d="M904.533 640c4.267 0 12.8 4.267 17.067 8.533 0 4.267 0 12.8 0 21.333l-132.267 187.733c-12.8 12.8-21.333 17.067-34.133 17.067h-196.267c-8.533 0-17.067-8.533-17.067-17.067v-196.267c0-8.533 8.533-17.067 17.067-17.067l345.6-4.267zM102.4 584.533c-8.533 0-17.067-8.533-17.067-17.067v-507.733c0-21.333 17.067-38.4 38.4-38.4h780.8c21.333 0 38.4 17.067 38.4 38.4v507.733c0 8.533-8.533 17.067-17.067 17.067h-823.467zM533.333 221.867c0 8.533 8.533 17.067 17.067 17.067h260.267c8.533 0 17.067-8.533 17.067-17.067v-72.533c0-8.533-8.533-17.067-17.067-17.067h-260.267c-8.533 0-17.067 8.533-17.067 17.067 0 0 0 72.533 0 72.533zM482.133 853.333c0 8.533-8.533 17.067-21.333 17.067h-170.667c-17.067 4.267-29.867-4.267-38.4-12.8l-145.067-187.733c-4.267-8.533-8.533-12.8-4.267-21.333 4.267-4.267 8.533-8.533 17.067-8.533h341.333c12.8 0 21.333 8.533 21.333 17.067 0 0 0 196.267 0 196.267z" />
<glyph unicode="&#xe94d;" glyph-name="product_catalogue" d="M119.467 616.533l349.867-153.6c25.6-12.8 59.733-12.8 85.333 0l349.867 153.6c21.333 8.533 34.133 29.867 34.133 51.2s-12.8 42.667-34.133 51.2l-349.867 149.333c-25.6 12.8-59.733 12.8-85.333 0l-349.867-153.6c-21.333-8.533-34.133-25.6-34.133-46.933s12.8-42.667 34.133-51.2v0zM904.533 497.067l-46.933 21.333c-8.533 4.267-21.333 4.267-29.867 0l-315.733-136.533-320 136.533c-8.533 4.267-21.333 4.267-29.867 0l-46.933-21.333c-17.067-8.533-29.867-25.6-29.867-46.933s12.8-42.667 34.133-51.2l349.867-153.6c25.6-12.8 59.733-12.8 85.333 0l349.867 153.6c21.333 8.533 34.133 29.867 34.133 51.2s-12.8 38.4-34.133 46.933v0zM904.533 283.733l-46.933 21.333c-8.533 4.267-21.333 4.267-29.867 0l-315.733-140.8-320 136.533c-8.533 4.267-21.333 4.267-29.867 0l-46.933-21.333c-17.067-4.267-29.867-25.6-29.867-46.933s12.8-42.667 34.133-51.2l349.867-153.6c25.6-12.8 59.733-12.8 85.333 0l349.867 153.6c21.333 8.533 34.133 29.867 34.133 51.2s-12.8 42.667-34.133 51.2v0z" />
<glyph unicode="&#xe94e;" glyph-name="active_status" d="M512 874.667c-234.667 0-426.667-192-426.667-426.667s192-426.667 426.667-426.667 426.667 192 426.667 426.667-192 426.667-426.667 426.667zM149.333 448c0 187.733 145.067 341.333 328.533 358.4v-268.8c-38.4-12.8-64-46.933-64-89.6 0-55.467 42.667-98.133 98.133-98.133 12.8 0 25.6 4.267 34.133 8.533l174.933-200.533c-59.733-42.667-132.267-68.267-209.067-68.267-200.533-4.267-362.667 157.867-362.667 358.4zM772.267 196.267l-174.933 204.8c8.533 12.8 12.8 29.867 12.8 46.933 0 42.667-25.6 76.8-64 93.867v264.533c183.467-17.067 328.533-170.667 328.533-358.4 0-98.133-42.667-187.733-102.4-251.733z" />
<glyph unicode="&#xe94f;" glyph-name="cancelled_status" d="M512 874.667c-234.667 0-426.667-192-426.667-426.667s192-426.667 426.667-426.667 426.667 192 426.667 426.667-192 426.667-426.667 426.667zM149.333 448c0 200.533 162.133 362.667 362.667 362.667 85.333 0 162.133-29.867 226.133-81.067l-507.733-507.733c-51.2 64-81.067 140.8-81.067 226.133zM512 85.333c-85.333 0-162.133 29.867-226.133 81.067l507.733 507.733c51.2-64 81.067-140.8 81.067-226.133 0-200.533-162.133-362.667-362.667-362.667z" />
<glyph unicode="&#xe950;" glyph-name="finished_status" d="M512 21.333c-234.667 0-426.667 192-426.667 426.667s192 426.667 426.667 426.667 426.667-192 426.667-426.667-192-426.667-426.667-426.667zM512 810.667c-200.533 0-362.667-162.133-362.667-362.667s162.133-362.667 362.667-362.667c200.533 0 362.667 162.133 362.667 362.667s-162.133 362.667-362.667 362.667zM674.133 622.933l-226.133-251.733-98.133 110.933-42.667-51.2 140.8-157.867 264.533 294.4 4.267 4.267z" />
<glyph unicode="&#xe951;" glyph-name="half_arrow_right" d="M896 302.933h-768c-12.8 0-21.333 8.533-21.333 21.333s8.533 21.333 21.333 21.333h721.067l-183.467 213.333c-8.533 8.533-8.533 21.333 4.267 29.867 8.533 8.533 21.333 8.533 29.867-4.267l213.333-251.733c4.267-4.267 8.533-17.067 4.267-21.333s-12.8-8.533-21.333-8.533z" />
<glyph unicode="&#xe952;" glyph-name="planning_status" d="M512 874.667c-234.667 0-426.667-192-426.667-426.667s192-426.667 426.667-426.667 426.667 192 426.667 426.667-192 426.667-426.667 426.667zM512 85.333c-200.533 0-362.667 162.133-362.667 362.667 0 187.733 145.067 341.333 328.533 358.4v-268.8c-38.4-12.8-64-46.933-64-89.6 0-55.467 42.667-98.133 98.133-98.133s98.133 42.667 98.133 98.133c0 42.667-25.6 76.8-64 93.867v264.533c183.467-17.067 328.533-170.667 328.533-358.4 0-200.533-162.133-362.667-362.667-362.667z" />
<glyph unicode="&#xe953;" glyph-name="generic" d="M512 21.333c-234.667 0-426.667 192-426.667 426.667s192 426.667 426.667 426.667 426.667-192 426.667-426.667-192-426.667-426.667-426.667zM512 810.667c-200.533 0-362.667-162.133-362.667-362.667s162.133-362.667 362.667-362.667 362.667 162.133 362.667 362.667-162.133 362.667-362.667 362.667z" />
<glyph unicode="&#xe954;" glyph-name="up_arrow" d="M448 691.2l-349.867-401.067c-17.067-17.067-21.333-42.667-12.8-64s25.6-38.4 51.2-42.667c21.333-4.267 46.933 4.267 64 21.333l302.933 349.867c0 0 4.267 4.267 8.533 4.267s4.267 0 8.533-4.267l302.933-349.867c25.6-25.6 64-29.867 89.6-4.267s29.867 64 8.533 93.867l-349.867 401.067c-17.067 17.067-38.4 29.867-59.733 29.867-25.6-4.267-46.933-12.8-64-34.133z" />
<glyph unicode="&#xe955;" glyph-name="down_arrow" d="M507.733 179.2c25.6 0 46.933 8.533 59.733 29.867l349.867 401.067c25.6 25.6 21.333 68.267-4.267 93.867s-68.267 21.333-89.6-4.267l-302.933-349.867c0 0-4.267-4.267-8.533-4.267s-4.267 0-8.533 4.267l-307.2 349.867c-12.8 17.067-38.4 25.6-59.733 21.333s-42.667-21.333-51.2-42.667c-8.533-21.333 0-46.933 12.8-64l349.867-401.067c17.067-21.333 38.4-34.133 59.733-34.133z" />
<glyph unicode="&#xe956;" glyph-name="dollar_icon" d="M512 874.667c-234.667 0-426.667-192-426.667-426.667s192-426.667 426.667-426.667 426.667 192 426.667 426.667c0 234.667-192 426.667-426.667 426.667zM512 106.667c-187.733 0-341.333 153.6-341.333 341.333s153.6 341.333 341.333 341.333 341.333-153.6 341.333-341.333c0-187.733-153.6-341.333-341.333-341.333zM486.4 294.4c-38.4 0-72.533 8.533-106.667 25.6v81.067c21.333-8.533 38.4-17.067 64-25.6s42.667-8.533 59.733-8.533c12.8 0 25.6 0 29.867 4.267s8.533 8.533 8.533 17.067c0 4.267-4.267 8.533-8.533 12.8s-12.8 8.533-25.6 12.8-25.6 8.533-46.933 17.067c-21.333 8.533-38.4 17.067-51.2 25.6s-12.8 21.333-17.067 34.133-8.533 29.867-8.533 46.933c0 25.6 8.533 46.933 25.6 64s42.667 25.6 81.067 29.867v34.133h51.2v-34.133c34.133 0 68.267-8.533 98.133-25.6l-29.867-72.533c-34.133 17.067-68.267 25.6-93.867 25.6-12.8 0-21.333 0-29.867-4.267s-8.533-8.533-8.533-12.8c0-4.267 0-8.533 4.267-12.8s12.8-8.533 21.333-12.8 21.333-8.533 38.4-17.067c34.133-12.8 59.733-25.6 76.8-42.667s21.333-34.133 21.333-59.733c0-29.867-8.533-51.2-25.6-68.267s-42.667-29.867-76.8-34.133v-46.933h-51.2v46.933z" />
<glyph unicode="&#xe957;" glyph-name="equals_icon" d="M512 874.667c-234.667 0-426.667-192-426.667-426.667s192-426.667 426.667-426.667 426.667 192 426.667 426.667c0 234.667-192 426.667-426.667 426.667zM512 106.667c-187.733 0-341.333 153.6-341.333 341.333s153.6 341.333 341.333 341.333 341.333-153.6 341.333-341.333c0-187.733-153.6-341.333-341.333-341.333zM384 477.867v68.267h256v-68.267h-256zM384 362.667v68.267h256v-68.267h-256z" />
</font>
</defs>
</svg>
